Browse Collections Artists Sources   Search Dates

Add Show    List Management    Help


Bob Weir 04/27/12
Kirby Center, Wilkes-Barre, PA
Comments Add Comment    Source Collectors    Add to Collection    Add to Want List    History
Source # 120012 Other Sources
Entered by ziko
Checksums ffp , md5
Disc Counts 0 / 0
Media Size Compressed: 1.21 GB (1297469876 bytes)
Date Circulated
Date Added
05/01/2012
05/01/2012
Source Summary Source: Audience recording > Nak 300s w/CP4 caps > Marantz PMD 430 > MAC Lineage: MAC > Marantz PMD 430 > Edirol R-09HR > wav 24/48 Location: Row O Seat 103 just left of DFC Taped and transferred by John Bleich 
Source Information - Download Text | Download Zip
Bob Weir
Kirby Center
Wilkes-Barre, PA
04/27/2012


Source: Audience recording > Nak 300s w/CP4 caps > Marantz PMD 430 > MAC
Lineage: MAC > Marantz PMD 430 > Edirol R-09HR > wav 24/48
Location: Row O Seat 103 just left of DFC
             Taped and transferred by John Bleich  

Set I

01   Jack Straw
02   Minglewood Blues
03   Friend Of The Devil
04   The Winners
05   Loser
06   Victim Or The Crime >
07   When I Paint My Masterpiece
08   Bobby talking about writing "Saint Of Circumstance"
09   Lost Sailor >
10   Saint Of Circumstance


Set II

01   Duck Joke
02   Black Throated Wind >
03   Playin In The Band >
04   Dark Star >
05   Josephine >
06   The Other One >
07   Days Between >
08   Playin' In The Band (reprise)

encore:

09   Brokedown Palace


Notes:

Tape flips and a tape pause during the applause before "Brokedown Palace" have been patched with:

Source: AKG CK1x > Naiant Tiny Box > Sony [email protected]/48
Location: Center Mezz, Row A, Seat 107 and 108
Transfer: M10 > AA 3.0 > Cdwav > flac16
Taper: Tony Suraci


Many thanks to Johnny "Cassette" Bleich for this recording.


edited and mastered by SIRMick
April 2012


shntool ouput:

    length     expanded size    cdr  WAVE problems  fmt   ratio  filename
     7:30.31       79452956 B   ---   --   ---xx   flac  0.5928  bw2012-04-27s1t01.flac
     8:00.01       84674396 B   ---   --   ---xx   flac  0.6127  bw2012-04-27s1t02.flac
     4:49.48       51092540 B   ---   --   ---xx   flac  0.5519  bw2012-04-27s1t03.flac
     4:57.05       52402604 B   ---   --   ---xx   flac  0.5603  bw2012-04-27s1t04.flac
     7:16.54       77037452 B   ---   --   ---xx   flac  0.5374  bw2012-04-27s1t05.flac
     7:58.67       84476828 B   ---   --   ---xx   flac  0.5552  bw2012-04-27s1t06.flac
     5:18.60       56236364 B   ---   --   ---xx   flac  0.5615  bw2012-04-27s1t07.flac
     2:27.61       26074316 B   ---   --   ---xx   flac  0.5358  bw2012-04-27s1t08.flac
     6:22.23       67438940 B   ---   --   ---xx   flac  0.5436  bw2012-04-27s1t09.flac
     8:08.31       86156156 B   ---   --   ---xx   flac  0.5682  bw2012-04-27s1t10.flac
     2:00.05       21179804 B   ---   --   ---xx   flac  0.5432  bw2012-04-27s2t01.flac
     7:25.46       78606236 B   ---   --   ---xx   flac  0.5844  bw2012-04-27s2t02.flac
     9:52.49      104544092 B   ---   --   ---xx   flac  0.5796  bw2012-04-27s2t03.flac
     4:28.41       47371676 B   ---   --   ---xx   flac  0.5668  bw2012-04-27s2t04.flac
     6:28.37       68530268 B   ---   --   ---xx   flac  0.5724  bw2012-04-27s2t05.flac
     5:54.14       62478572 B   ---   --   ---xx   flac  0.6202  bw2012-04-27s2t06.flac
    12:11.58      129084860 B   ---   --   ---xx   flac  0.5633  bw2012-04-27s2t07.flac
     5:28.59       57998012 B   ---   --   ---xx   flac  0.5944  bw2012-04-27s2t08.flac
     5:55.05       62633804 B   ---   --   ---xx   flac  0.5673  bw2012-04-27s2t09.flac
   122:35.20     1297469876 B                            0.5716  (19 files)

flac fingerprints:

bw2012-04-27s1t01.flac:bd1329b87d76062306a8b73e205504da
bw2012-04-27s1t02.flac:4420cb33b99d3f4eb94a26d2e13a0d23
bw2012-04-27s1t03.flac:01f993cc19b20c46117d873df07fe8d9
bw2012-04-27s1t04.flac:3612bac3761a5f54a3faa990764629fe
bw2012-04-27s1t05.flac:1489bebd2772315ba2115914c35bc9e6
bw2012-04-27s1t06.flac:22f63f7f05f7c4e25942952548c2a05a
bw2012-04-27s1t07.flac:104511244ef1a72ca0cbbf18f5c41fbb
bw2012-04-27s1t08.flac:fb9a32762127b05f657bad223b548075
bw2012-04-27s1t09.flac:8ee54a825e7e246bef9164645b58552a
bw2012-04-27s1t10.flac:79fc204a3cc5d841b891aaf02641d90e
bw2012-04-27s2t01.flac:60959074c6485645f3ac39bfb3470362
bw2012-04-27s2t02.flac:a3e4997ff54d998bd4638f7eac5811a5
bw2012-04-27s2t03.flac:ca29b2decc57eca38c5093fb222d3f53
bw2012-04-27s2t04.flac:8e0897cc213edee97b4d44948078b317
bw2012-04-27s2t05.flac:12d7cb2414056df02d1db1629d34ebe8
bw2012-04-27s2t06.flac:c11e6dae2b2c5f5f5e44ed5c14e27d90
bw2012-04-27s2t07.flac:dff72f8e1d1f49be605773ea37f03bf1
bw2012-04-27s2t08.flac:2d121ba05e79d38c7c522b4ca0cb8e18
bw2012-04-27s2t09.flac:e1788bd934b4591640d15c62668434f0
Show Checksums
ffp
bw2012-04-27s1t01.flac:bd1329b87d76062306a8b73e205504da
bw2012-04-27s1t02.flac:4420cb33b99d3f4eb94a26d2e13a0d23
bw2012-04-27s1t03.flac:01f993cc19b20c46117d873df07fe8d9
bw2012-04-27s1t04.flac:3612bac3761a5f54a3faa990764629fe
bw2012-04-27s1t05.flac:1489bebd2772315ba2115914c35bc9e6
bw2012-04-27s1t06.flac:22f63f7f05f7c4e25942952548c2a05a
bw2012-04-27s1t07.flac:104511244ef1a72ca0cbbf18f5c41fbb
bw2012-04-27s1t08.flac:fb9a32762127b05f657bad223b548075
bw2012-04-27s1t09.flac:8ee54a825e7e246bef9164645b58552a
bw2012-04-27s1t10.flac:79fc204a3cc5d841b891aaf02641d90e
bw2012-04-27s2t01.flac:60959074c6485645f3ac39bfb3470362
bw2012-04-27s2t02.flac:a3e4997ff54d998bd4638f7eac5811a5
bw2012-04-27s2t03.flac:ca29b2decc57eca38c5093fb222d3f53
bw2012-04-27s2t04.flac:8e0897cc213edee97b4d44948078b317
bw2012-04-27s2t05.flac:12d7cb2414056df02d1db1629d34ebe8
bw2012-04-27s2t06.flac:c11e6dae2b2c5f5f5e44ed5c14e27d90
bw2012-04-27s2t07.flac:dff72f8e1d1f49be605773ea37f03bf1
bw2012-04-27s2t08.flac:2d121ba05e79d38c7c522b4ca0cb8e18
bw2012-04-27s2t09.flac:e1788bd934b4591640d15c62668434f0
md5
b5cbcd3848a59a811d64fa697d8b7aba *bw2012-04-27s1t01.flac
310b7602386832bb055e60d477dde64d *bw2012-04-27s1t02.flac
f7d99db2d1e1346f2b84eab19f98e236 *bw2012-04-27s1t03.flac
1c94d54aa354d785daf12866de274d39 *bw2012-04-27s1t04.flac
f81adcce969c097129961ef5cef9dfe6 *bw2012-04-27s1t05.flac
e8da71c1eca64140badfffb0edb70f0f *bw2012-04-27s1t06.flac
644644bfcb5258d5744ba3153f189778 *bw2012-04-27s1t07.flac
6cca12a396a725f80a7b1383ef863d67 *bw2012-04-27s1t08.flac
47cc6ed66fa4b76953947c4ef1c0c3df *bw2012-04-27s1t09.flac
23462c0e7243977beed26d782b795cb1 *bw2012-04-27s1t10.flac
fe503b12e4dc1f045fb0970274def469 *bw2012-04-27s2t01.flac
2c40127351455064e1e029b0a5b41ce7 *bw2012-04-27s2t02.flac
a59beed576f7e64222c9af34c456be50 *bw2012-04-27s2t03.flac
9927d1b4e9e1f86d720b8ae0b0daf752 *bw2012-04-27s2t04.flac
7bc24dba736f1fe0d0e90248492e1a8e *bw2012-04-27s2t05.flac
12ac4b00c2cfbc92354f0f9a8453e17d *bw2012-04-27s2t06.flac
60da559c5855cec03ef02dbbde566895 *bw2012-04-27s2t07.flac
b675df360f3d74861d8d7a24ba5b2f99 *bw2012-04-27s2t08.flac
a49b646d5337cc95312f4fdc00f77ed3 *bw2012-04-27s2t09.flac

Comments
Add Comment
Other Sources (comments)
Source: AKG CK1x>Naiant... (0)
Date User Comment