Browse Collections Artists Sources   Search Dates

Add Show    List Management    Help


Bob Weir 05/01/12
State Theatre, Portland, ME
Comments Add Comment    Source Collectors    Add to Collection    Add to Want List    History
Source # 120017 Other Sources
Entered by ziko
Checksums ffp
Disc Counts 0 / 0
Media Size
Date Circulated
Date Added
05/02/12
05/02/2012
Source Summary Source: Schoeps CCM4V'S(din)>Lunatec V2>Benchmark AD2K> Sound Devices 722 (24/48) FOB/DFC/KFC/ZFC/AARP 28' From Stage,8' High DSP: Sound Devices 722>Sound Forge 9.0>CD Wave>flac(16) 
  Archive
Source Information - Download Text | Download Zip
Bob Weir Solo Acoustic
State Theatre
Portland, Maine
5/1/2012

Source: Schoeps CCM4V'S(din)>Lunatec V2>Benchmark AD2K>
Sound Devices 722 (24/48)
FOB/DFC/KFC/ZFC/AARP 28' From Stage,8' High
DSP: Sound Devices 722>Sound Forge 9.0>CD Wave>flac(16)
Recorded By: Z-Man
Seeded By: Z-Man

Disc I 1st Set

01 Tuning
02 Hell In A Bucket
03 Twilight Time
04 Peggy-O
05 Me And My Uncle >
06 Friend Of The Devil >
07 Ashes And Glass
08 Playin' In The Band >
09 Jack Straw

Disc I 2nd Set

01 Bobby Tells A Joke
02 False Start/Tuning
03 Corinna
04 Banter About Kingfish
05 K.C. Moan
06 Black-Throated Wind

Disc III 2nd Set Con't

01 Bird Song >
02 The Other One >
03 Bird Song >
04 Days Between >
05 Sugar Magnolia
Encore:
06 *Jailhouse Rock
07 Box Of Rain

* Bobby Played Hollow Body Guitar

Flac Fingerprint

bobweir2012-05-01d01t01.flac:9a2f447a4df7f0ec26663007f468ae83
bobweir2012-05-01d01t02.flac:5bd17e2952cdbd25408a4725052335f2
bobweir2012-05-01d01t03.flac:7db7a58098e2b2eca2247e2c3a427665
bobweir2012-05-01d01t04.flac:6859dcfc3fb23bc82a478a8a649144e7
bobweir2012-05-01d01t05.flac:5923181856fffe9f41d8fc906007f009
bobweir2012-05-01d01t06.flac:39135534e717428bab4a654c9d80bee3
bobweir2012-05-01d01t07.flac:414bc9fb051650f0f5982fa9e871f104
bobweir2012-05-01d01t08.flac:102d7002811d4e4be0daa6c5b044a8ee
bobweir2012-05-01d01t09.flac:0ad9127c0888b57059f47bb943bd7728
bobweir2012-05-01d02t01.flac:8f6535c9a9274bd54ec3c53319efb2b9
bobweir2012-05-01d02t02.flac:caae82110fbc7b5d01491c6ec9f397ad
bobweir2012-05-01d02t03.flac:c765db466a8dc4cd2b51389b0193c986
bobweir2012-05-01d02t04.flac:08bf41261fb1f657b2cd2302e0932604
bobweir2012-05-01d02t05.flac:6c5f8c6b019870f81eb1cafaafe40e36
bobweir2012-05-01d02t06.flac:b1c98d93ddc3d92a9ccd5190ac06b1c7
bobweir2012-05-01d03t01.flac:eb779e04c3a29990c5eff32859caca2f
bobweir2012-05-01d03t02.flac:e36ca670e93a8385b47d7b048bcfe4f0
bobweir2012-05-01d03t03.flac:daefa55161c86c0596a457549bf48302
bobweir2012-05-01d03t04.flac:7cad27319de9360650684dd85edbf4cb
bobweir2012-05-01d03t05.flac:2a947776ad30bdcb0277c2d7f933ec14
bobweir2012-05-01d03t06.flac:a1958fac8829f0a56022fa935345f629
bobweir2012-05-01d03t07.flac:ac60c4d2d3e3d227556cf145fb7bdabc

Shntool

    length     expanded size    cdr  WAVE problems  fmt   ratio  filename
     1:29.08       15718460 B   ---   --   ---xx   flac  0.4112  bobweir2012-05-01d01t01.flac
     9:11.00       97196444 B   ---   --   ---xx   flac  0.4562  bobweir2012-05-01d01t02.flac
     4:16.03       45165500 B   ---   --   ---xx   flac  0.4282  bobweir2012-05-01d01t03.flac
     5:23.63       57125420 B   ---   --   ---xx   flac  0.4059  bobweir2012-05-01d01t04.flac
     3:58.02       41987948 B   ---   --   ---xx   flac  0.4623  bobweir2012-05-01d01t05.flac
     4:46.30       50521004 B   ---   --   ---xx   flac  0.4435  bobweir2012-05-01d01t06.flac
    10:15.22      108537788 B   ---   --   ---xx   flac  0.4634  bobweir2012-05-01d01t07.flac
    10:40.46      113004236 B   ---   --   ---xx   flac  0.4626  bobweir2012-05-01d01t08.flac
     8:50.53       93616700 B   ---   --   ---xx   flac  0.4881  bobweir2012-05-01d01t09.flac
     1:49.74       19401692 B   ---   --   ---xx   flac  0.3957  bobweir2012-05-01d02t01.flac
     1:16.41       13502876 B   ---   --   ---xx   flac  0.4167  bobweir2012-05-01d02t02.flac
    12:35.71      133349036 B   ---   --   ---xx   flac  0.4684  bobweir2012-05-01d02t03.flac
     1:21.31       14361356 B   ---   --   ---xx   flac  0.4192  bobweir2012-05-01d02t04.flac
     4:19.40       45781724 B   ---   --   ---xx   flac  0.4472  bobweir2012-05-01d02t05.flac
     8:04.40       85471724 B   ---   --   ---xx   flac  0.4832  bobweir2012-05-01d02t06.flac
     7:39.39       81059372 B   ---   --   ---xx   flac  0.4530  bobweir2012-05-01d03t01.flac
     7:45.64       82176572 B   ---   --   ---xx   flac  0.4859  bobweir2012-05-01d03t02.flac
     3:57.43       41907980 B   ---   --   ---xx   flac  0.4634  bobweir2012-05-01d03t03.flac
    10:15.31      108558956 B   ---   --   ---xx   flac  0.4103  bobweir2012-05-01d03t04.flac
    11:24.49      120772892 B   ---   --   ---xx   flac  0.5469  bobweir2012-05-01d03t05.flac
     4:35.14       48542972 B   ---   --   ---xx   flac  0.4964  bobweir2012-05-01d03t06.flac
     6:20.26       67093196 B   ---   --   ---xx   flac  0.4820  bobweir2012-05-01d03t07.flac
   140:17.40     1484853848 B                            0.4647  (22 files)
Show Checksums
ffp
bobweir2012-05-01d01t01.flac:9a2f447a4df7f0ec26663007f468ae83
bobweir2012-05-01d01t02.flac:5bd17e2952cdbd25408a4725052335f2
bobweir2012-05-01d01t03.flac:7db7a58098e2b2eca2247e2c3a427665
bobweir2012-05-01d01t04.flac:6859dcfc3fb23bc82a478a8a649144e7
bobweir2012-05-01d01t05.flac:5923181856fffe9f41d8fc906007f009
bobweir2012-05-01d01t06.flac:39135534e717428bab4a654c9d80bee3
bobweir2012-05-01d01t07.flac:414bc9fb051650f0f5982fa9e871f104
bobweir2012-05-01d01t08.flac:102d7002811d4e4be0daa6c5b044a8ee
bobweir2012-05-01d01t09.flac:0ad9127c0888b57059f47bb943bd7728
bobweir2012-05-01d02t01.flac:8f6535c9a9274bd54ec3c53319efb2b9
bobweir2012-05-01d02t02.flac:caae82110fbc7b5d01491c6ec9f397ad
bobweir2012-05-01d02t03.flac:c765db466a8dc4cd2b51389b0193c986
bobweir2012-05-01d02t04.flac:08bf41261fb1f657b2cd2302e0932604
bobweir2012-05-01d02t05.flac:6c5f8c6b019870f81eb1cafaafe40e36
bobweir2012-05-01d02t06.flac:b1c98d93ddc3d92a9ccd5190ac06b1c7
bobweir2012-05-01d03t01.flac:eb779e04c3a29990c5eff32859caca2f
bobweir2012-05-01d03t02.flac:e36ca670e93a8385b47d7b048bcfe4f0
bobweir2012-05-01d03t03.flac:daefa55161c86c0596a457549bf48302
bobweir2012-05-01d03t04.flac:7cad27319de9360650684dd85edbf4cb
bobweir2012-05-01d03t05.flac:2a947776ad30bdcb0277c2d7f933ec14
bobweir2012-05-01d03t06.flac:a1958fac8829f0a56022fa935345f629
bobweir2012-05-01d03t07.flac:ac60c4d2d3e3d227556cf145fb7bdabc

Comments
Add Comment
Other Sources (comments)
Source: akg c1000s(hc)ortf... (0)
Date User Comment