Browse Collections Artists Sources   Search Dates

Add Show    List Management    Help


Grateful Dead 10/23/80
Radio City Music Hall, New York, NY
Comments Add Comment    Source Collectors    Add to Collection    Add to Want List    History
Source # 120072 Other Sources
Entered by Matt Vernon
Checksums ffp , flac-md5
Disc Counts 0 / 0
Media Size Compressed: 1.23 GB (1320687035 bytes)
Date Circulated
Date Added
05/08/2012
05/08/2012
Source Summary flac16; Loge Dead front center; Nak 700 > sony D-5> AMC> DAT> CDR> EAC> TLH> Flac; Recorded by Keith Gatto & Pete Jaeger; Extracted & flac encoded by Michael Turi; Patched and Edited in Sound Forge Pro. 10.0 ; Tracked in Audacity 2.0 by dusborne 
  Archive
Source Information - Download Text | Download Zip
Grateful Dead
October 23, 1980
Radio City Music Hall
New York, NY

--------------------------------------------------------------------------------

Loge
Dead front center

Nak 700 > sony D-5> AMC> DAT> CDR> EAC> TLH> Flac



Recorded by Keith Gatto & Pete Jaeger


Extracted & flac encoded by Michael Turi

Patched and Edited in Sound Forge Pro. 10.0
Tracked in Audacity 2.0  by dusborne

05-06-2012

----------------------------------------------------------------------------------

Patched With:

gd80-10-23.fob-sonyECM280.wise-miller.101256.flac16

Recording Info:
(FOB) Sony ECM-280 -> Cassette Master
(Sony TC-D5M/Maxell UDXLII-C90/Dolby B)

Transfer Info:
Cassette Master (Nakamichi DR-1/Dolby B) ->
Sound Devices 744T (24bit/96k) -> Adobe Audition v1.5 ->
Samplitude Professional v10.21 -> FLAC/16
(3 Discs Audio / 2 Discs FLAC)

All Transfers and Mastering By Charlie Miller
[email protected]
September 9, 2009

Notes:
-- Discs 2 and 3 are seamless
-- Recorded By Jim Wise
-- Thanks to Jim Wise for lending me his master cassettes
-- Thanks to Joe B. Jones for his help with the pitch correction


----------------------------------------------------------------------------------------

---Thank You Keith Gatto, Pete Jaeger and Jim Wise for recording the show.
---Thank You Michael Turi For extracting the files from your personal cd's.
---Thank you Charlie Miller for your work on Jim's recording.
---Thanks to germain for everything;seeding,encouragement,advice and tutelage.

-------------------------------------------------------------------------------------

--Set 1--
101-d1t01 - Tuning
102-d1t02 - On the Road Again
103-d1t03 - It Must Have Been The Roses
104-d1t04 - Dark Hollow
105-d1t05 - Jack-A-Roe
106-d1t06 - Cassidy
107-d1t07 - China Doll
108-d1t08 - Monkey & the Engineer ->
109-d1t09 - Oh Babe It Ain't No Lie ->
110-d1t10 - Ripple

--Set 2--
201-d2t01 - Feel Like a Stranger
202-d2t02 - Tennessee Jed
203-d2t03 - Mama Tried ->
204-d2t04 - Mexicali Blues
205-d2t05 - Althea
206-d2t06 - Little Red Rooster
207-d2t07 - Big Railroad Blues
208-d2t08 - The Music Never Stopped

--Set 3--
301-d2t09 - Tuning
302-d2t10 - Samson & Delilah
303-d2t11 - Ship of Fools
304-d3t01 - Estimated Prophet ->
305-d3t02 - Terrapin Station ->
306-d3t03 - Drums ->
307-d3t04 - Space ->
308-d3t05 - The Wheel ->
309-d3t06 - Truckin' ->
310-d3t07 - Wharf Rat ->
311-d3t08 - Sugar Magnolia

--Encore--
312-d3t09 - Casey Jones


----------------------------------------------------------------------------------------

Patch Notes:

Acoustic set 1

Lead into On the Road Again - 47 seconds
On the Road Again-It Must Have Been The Roses transition - 24 seconds
It Must Have Been The Roses-Dark Hollow transition - 56 seconds
Dark Hollow-Jack-A-Roe transition - 34 seconds
Jack-A-Roe-Cassidy transition - 47 seconds
Cassidy-China Doll transition - 59 seconds
China Doll-Monkey & the Engineer transition - 2 seconds

Smoothed cuts with fades
many mic bumps smoothed out as best as could be done without hurting music



Tagging notes:
Show information is embedded within the header of each flac file.
It will display on any player capable of directly playing flac
files. If converted to wav during processing, all tags will be
stripped, however audio data will remain unaffected. If you must
transcode to a lossy format, do so directly Flac > Lossy.
Use ffp to validate audio integrity.
Md5 values will change if tagging is altered.

dusborne 5-6-2012

---------------------------------------------------------------------------------------

length     expanded size    cdr  WAVE problems  fmt   ratio  filename
     0:45.64        8088572 B   ---   --   ---xx   flac  0.6644  gd80-10-23d1t01.flac
     3:56.09       41651612 B   ---   --   ---xx   flac  0.6434  gd80-10-23d1t02.flac
     8:04.20       85424684 B   ---   --   ---xx   flac  0.6203  gd80-10-23d1t03.flac
     5:18.32       56170508 B   ---   --   ---xx   flac  0.6441  gd80-10-23d1t04.flac
     5:38.27       59686748 B   ---   --   ---xx   flac  0.6534  gd80-10-23d1t05.flac
     5:45.72       61027388 B   ---   --   ---xx   flac  0.6603  gd80-10-23d1t06.flac
     5:31.71       58555436 B   ---   --   ---xx   flac  0.6241  gd80-10-23d1t07.flac
     2:29.63       26431820 B   ---   --   ---xx   flac  0.6557  gd80-10-23d1t08.flac
     7:09.68       75835580 B   ---   --   ---xx   flac  0.6063  gd80-10-23d1t09.flac
     4:38.68       49199180 B   ---   --   ---xx   flac  0.6512  gd80-10-23d1t10.flac
     9:03.18       95827580 B   ---   --   ---xx   flac  0.6000  gd80-10-23d2t01.flac
    10:02.35      106275164 B   ---   --   ---xx   flac  0.6033  gd80-10-23d2t02.flac
     2:36.44       27621932 B   ---   --   ---xx   flac  0.6267  gd80-10-23d2t03.flac
     5:36.31       59343356 B   ---   --   ---xx   flac  0.6223  gd80-10-23d2t04.flac
     9:45.67      103351628 B   ---   --   ---xx   flac  0.6168  gd80-10-23d2t05.flac
    10:06.11      106924316 B   ---   --   ---xx   flac  0.6319  gd80-10-23d2t06.flac
     3:40.29       38876252 B   ---   --   ---xx   flac  0.6459  gd80-10-23d2t07.flac
     7:56.46       84074636 B   ---   --   ---xx   flac  0.6539  gd80-10-23d2t08.flac
     1:01.29       10828652 B   ---   --   ---xx   flac  0.5742  gd80-10-23d2t09.flac
     7:36.33       80516060 B   ---   --   ---xx   flac  0.6603  gd80-10-23d2t10.flac
     9:05.51       96257996 B   ---   --   ---xx   flac  0.6069  gd80-10-23d2t11.flac
    11:25.65      120986924 B   ---   --   ---xx   flac  0.6530  gd80-10-23d3t01.flac
    12:20.38      130625420 B   ---   --   ---xx   flac  0.6381  gd80-10-23d3t02.flac
     8:04.16       85415276 B   ---   --   ---xx   flac  0.5902  gd80-10-23d3t03.flac
     2:31.39       26728172 B   ---   --   ---xx   flac  0.5642  gd80-10-23d3t04.flac
     4:41.42       49667228 B   ---   --   ---xx   flac  0.6578  gd80-10-23d3t05.flac
     7:09.29       75743852 B   ---   --   ---xx   flac  0.6762  gd80-10-23d3t06.flac
    10:10.27      107667548 B   ---   --   ---xx   flac  0.6338  gd80-10-23d3t07.flac
     8:49.73       93487340 B   ---   --   ---xx   flac  0.6749  gd80-10-23d3t08.flac
     5:41.01       60154796 B   ---   --   ---xx   flac  0.6658  gd80-10-23d3t09.flac
   196:45.18     2082445656 B                            0.6342  (30 files)
Show Checksums
ffp
gd80-10-23d1t01.flac:973b25fcd78340c31b383dec936b2b82
gd80-10-23d1t02.flac:d36f7aafc236c1644cf50eec6a78c7b3
gd80-10-23d1t03.flac:92323e179fe263e991bdb602e6721541
gd80-10-23d1t04.flac:cbbd89e3f617a2166ac61984f687df14
gd80-10-23d1t05.flac:e0b5d46d1dd6d4e23fb78d6e986b9bd2
gd80-10-23d1t06.flac:9f2aa71d58593e4c722bd1ba3003ac34
gd80-10-23d1t07.flac:bd94f4ee08680900805947a881f73b12
gd80-10-23d1t08.flac:d9fe475d7510c30d8b187aa60de4e6c2
gd80-10-23d1t09.flac:a79e5f5fc8ad85e71a863fde70c55ad2
gd80-10-23d1t10.flac:4ae3f88c04f336512af1424b0062a289
gd80-10-23d2t01.flac:a621b9c60b0259a0e1102830bf2947a5
gd80-10-23d2t02.flac:916518a7c79b7ccd7939fb9d40d45a8f
gd80-10-23d2t03.flac:b26c07398d920ceb1cd2a0213af2dfbc
gd80-10-23d2t04.flac:dcecd8a563f4ce172452ca7b945c3cb9
gd80-10-23d2t05.flac:dd301abdc9c868b820fa8a40c56e5f74
gd80-10-23d2t06.flac:5ab1c7702117d084894f189989d296ed
gd80-10-23d2t07.flac:72f7fb4afc101a37235eec2a5bf0e39c
gd80-10-23d2t08.flac:8304ff3e21a73e8ce06b1c395b13f350
gd80-10-23d2t09.flac:211979bf934efea825ef388232b7021c
gd80-10-23d2t10.flac:eaa67737b1db48f73e82170d60f5e2f2
gd80-10-23d2t11.flac:37db484c1e09b4e8a7d9f2b2a384703d
gd80-10-23d3t01.flac:c7c7d7b7d115a803e9b5617de6b24717
gd80-10-23d3t02.flac:3f78127a131240121f924e3bc6315601
gd80-10-23d3t03.flac:e4a76193219d37778c57339f2b2dd63a
gd80-10-23d3t04.flac:c2e7ad682bba78533b9caca88075998c
gd80-10-23d3t05.flac:66265eb217ad271e0d5efd67eb6b1a0b
gd80-10-23d3t06.flac:7d28f678c8b92f1cfdbeea8b6ffb8306
gd80-10-23d3t07.flac:6407d010c18d5229bd6fd626e48f22ee
gd80-10-23d3t08.flac:1c8168c1cf57f6f9989a5c3aa1d3fb31
gd80-10-23d3t09.flac:e17f0db79852295acdd7605cd9e98769
flac-md5
c2fb5c4ac9fff631b52910b173c6677a *gd80-10-23d1t01.flac
f601cb4b0c52f5cdc7d59108b00386a0 *gd80-10-23d1t02.flac
c8b0e2deb64003e4b38ac7ebeceadc47 *gd80-10-23d1t03.flac
9285753f994f87439903604d6c4ca5b9 *gd80-10-23d1t04.flac
038402192b276fc3becfc84e0ffb22e7 *gd80-10-23d1t05.flac
6888bc0eca9895b8e3c4fe60ff876a0e *gd80-10-23d1t06.flac
b9d0dc4631dc99c5a82ae243a8e02940 *gd80-10-23d1t07.flac
be34885c93cd5b20a220aa81ca8ef786 *gd80-10-23d1t08.flac
092848a214a686ad86b412fb0a08f623 *gd80-10-23d1t09.flac
29370fff9a15914ef3e4a0c210957363 *gd80-10-23d1t10.flac
d4ce3b4baa5812801354ca9ce2b19d44 *gd80-10-23d2t01.flac
557c084d9b5ecd894f9892937b9d8285 *gd80-10-23d2t02.flac
01468139fb387b11ac0b823858d6cdb3 *gd80-10-23d2t03.flac
7d8b14fe9854aca918a433ee14723b36 *gd80-10-23d2t04.flac
ea5e016a70e8e945454b38af2a3edaba *gd80-10-23d2t05.flac
0ccc0ae520851bd267a0f5abd124aab4 *gd80-10-23d2t06.flac
5c29454ffa77c261c643975f0217ad1e *gd80-10-23d2t07.flac
507420686ed8dae68cfbd75bca7c687d *gd80-10-23d2t08.flac
5a40fba3abb7cfc2ce79fa8b6aa09ab3 *gd80-10-23d2t09.flac
098006919c554c97a80399ea49bda641 *gd80-10-23d2t10.flac
2b83562b6bb8a8303ecbea8c1c07230b *gd80-10-23d2t11.flac
4534e8728dfe3cf67d8d5fbb4f979aaa *gd80-10-23d3t01.flac
4ab48e90719d9434e5d4fd6122e14a64 *gd80-10-23d3t02.flac
e3e82952d2ec963976e1a7189b00f821 *gd80-10-23d3t03.flac
2318751f7bf77538c2960189393e976e *gd80-10-23d3t04.flac
f92cdce083f73f913a6449394e80fffd *gd80-10-23d3t05.flac
e4e84417c1ad3f1a8f7e591c5fb48a4a *gd80-10-23d3t06.flac
084f31cf2fba40936f64f4c261dd8a9c *gd80-10-23d3t07.flac
9c2eeac091184da956df97dd9dffac9d *gd80-10-23d3t08.flac
dc5ea54ba04d3b7828d1786d8029d67b *gd80-10-23d3t09.flac

Comments
Add Comment
Other Sources (comments)
AUD(Sony... (0) Recording by Mark Cohen:... (1) flac16; Recording... (0) flac16; (FOB)... (0) flac24; (FOB)... (0) flac24; (FOB)... (0)
Date User Comment