Browse Collections Artists Sources   Search Dates

Add Show    List Management    Help


Grateful Dead 10/26/80
Radio City Music Hall, New York, NY
Comments Add Comment    Source Collectors    Add to Collection    Add to Want List    History
Source # 120169 Other Sources
Entered by Matt Vernon
Checksums ffp , flac-md5
Disc Counts 0 / 0
Media Size Compressed: 1.09 GB (1170320791 bytes)
Uncompressed: 1.8 GB (1937296460 bytes)
Date Circulated
Date Added
05/19/2012
05/19/2012
Source Summary flac16; Loge Dead front center; Nak 700 > sony D-5> AMC> DAT> CDR> EAC> TLH> Flac; Recorded by Keith Gatto & Pete Jaeger; Extracted & flac encoded by Michael Turi; Patched and Edited in Sound Forge Pro. 10.0; Tracked in Audacity 2.0 by dusborne 05-17-2012 
  Archive
Source Information - Download Text | Download Zip
Grateful Dead
October 26, 1980
Radio City Music Hall
New York, NY

--------------------------------------------------------------------------------

Loge
Dead front center

Nak 700 > sony D-5> AMC> DAT> CDR> EAC> TLH> Flac
Recorded by Keith Gatto & Pete Jaeger

Extracted & flac encoded by Michael Turi

Patched and Edited in Sound Forge Pro. 10.0
Tracked in Audacity 2.0 by dusborne
05-17-2012

----------------------------------------------------------------------------------

Patched With:
gd1980-10-26.094269.nak700.rolfe.miller.sbeok.flac16

Recording Info:
Nakamichi 700 -> Master Cassette (Sony D5/Maxell UDXL-I & UDXL-II/Dolby B)

Transfer Info:
Master Cassette (Nakamichi DR-1/Dolby B) -> Sound Devices 744T (24bit/88.2k)
->
Samplitude Professional v10.1 -> FLAC/16

All Transfers and Mastering By Charlie Miller
[email protected]
August 30, 2008

Notes:
-- Seamless disc change between discs 2 and 3
-- Recorded front row balcony
-- Thanks to Steve Rolfe for lending me his masters

----------------------------------------------------------------------------------------

---Thank You Keith Gatto, Pete Jaeger and Steve Rolfe for recording the show.
---Thank You Michael Turi For extracting the files from your personal cd's.
---Thank you Charlie Miller for your work on Steve's recording.
---Thanks to germain for everything;seeding,encouragement,advice and tutelage.

-------------------------------------------------------------------------------------

Set 1:
101-d1t01 - Iko Iko
102-d1t02 - Dark Hollow
103-d1t03 - It Must Have Been The Roses
104-d1t04 - On The Road Again
105-d1t05 - Jack-A-Roe
106-d1t06 - Cassidy
107-d1t07 - China Doll
108-d1t08 - Ripple

Set 2:
201-d2t01 - Jack Straw ->
202-d2t02 - Sugaree ->
203-d2t03 - Little Red Rooster
204-d2t04 - Brown Eyed Women
205-d2t05 - Let It Grow ->
206-d2t06 - Don't Ease Me In

Set 3:
301-d2t07 - Tuning
302-d2t08 - Samson And Delilah
303-d2t09 - Althea
304-d3t01 - Estimated Prophet ->
305-d3t02 - He's Gone ->
306-d3t03 - Drums ->
307-d3t04 - Space ->
308-d3t05 - Not Fade Away ->
309-d3t06 - Stella Blue ->
310-d3t07 - Good Lovin'

Encore:
311-d3t08 - Brokedown Palace

----------------------------------------------------------------------------------------

Patch Notes:

Acoustic set 1
---Dark Hollow patched for 1 second.

Electric set 2
---Sugaree patched for 2 seconds.
---Don't Ease Me In patched for 12 seconds.

Electric set 3
---Samson-Althea transition patched for 13 seconds.
---He's Gone outro jam patched for 21 seconds.

Smoothed cuts with fades
many mic bumps smoothed out as best as could be done without hurting music


Tagging notes:
Show information is embedded within the header of each flac file.
It will display on any player capable of directly playing flac
files. If converted to wav during processing, all tags will be
stripped, however audio data will remain unaffected. If you must
transcode to a lossy format, do so directly Flac > Lossy.
Use ffp to validate audio integrity.
Md5 values will change if tagging is altered.

dusborne 5-17-2012

----------------------------------------------------------------------------------------

length     expanded size    cdr  WAVE problems  fmt   ratio  filename
     6:58.60       73876364 B   ---   --   ---xx   flac  0.6253  gd80-10-26d1t01.flac
     4:06.06       43408556 B   ---   --   ---xx   flac  0.6194  gd80-10-26d1t02.flac
     7:15.10       76757564 B   ---   --   ---xx   flac  0.6039  gd80-10-26d1t03.flac
     3:38.57       38589308 B   ---   --   ---xx   flac  0.6273  gd80-10-26d1t04.flac
     5:06.62       54124268 B   ---   --   ---xx   flac  0.6186  gd80-10-26d1t05.flac
     5:19.00       56271644 B   ---   --   ---xx   flac  0.6329  gd80-10-26d1t06.flac
     5:49.34       61643612 B   ---   --   ---xx   flac  0.5951  gd80-10-26d1t07.flac
     5:07.64       54305372 B   ---   --   ---xx   flac  0.6171  gd80-10-26d1t08.flac
     5:25.45       57435884 B   ---   --   ---xx   flac  0.6229  gd80-10-26d2t01.flac
     9:50.38      104165420 B   ---   --   ---xx   flac  0.6106  gd80-10-26d2t02.flac
     9:10.67       97177628 B   ---   --   ---xx   flac  0.6113  gd80-10-26d2t03.flac
     7:15.58       76870460 B   ---   --   ---xx   flac  0.6055  gd80-10-26d2t04.flac
     9:39.28      102201500 B   ---   --   ---xx   flac  0.6401  gd80-10-26d2t05.flac
     3:42.04       39170252 B   ---   --   ---xx   flac  0.6423  gd80-10-26d2t06.flac
     1:08.52       12117548 B   ---   --   ---xx   flac  0.5274  gd80-10-26d2t07.flac
     8:04.27       85441148 B   ---   --   ---xx   flac  0.6124  gd80-10-26d2t08.flac
     9:02.51       95728796 B   ---   --   ---xx   flac  0.5911  gd80-10-26d2t09.flac
    11:27.62      121332668 B   ---   --   ---xx   flac  0.6135  gd80-10-26d3t01.flac
    15:39.18      165681980 B   ---   --   ---xx   flac  0.6027  gd80-10-26d3t02.flac
    11:21.02      120133148 B   ---   --   ---xx   flac  0.5618  gd80-10-26d3t03.flac
     6:33.60       69466364 B   ---   --   ---xx   flac  0.5405  gd80-10-26d3t04.flac
     5:12.37       55123868 B   ---   --   ---xx   flac  0.6182  gd80-10-26d3t05.flac
    11:25.42      120932828 B   ---   --   ---xx   flac  0.5631  gd80-10-26d3t06.flac
     7:49.71       82898636 B   ---   --   ---xx   flac  0.6251  gd80-10-26d3t07.flac
     6:50.50       72441644 B   ---   --   ---xx   flac  0.5912  gd80-10-26d3t08.flac
   183:02.30     1937296460 B                            0.6041  (25 files)


---------------------------------------------------------------------------------------


Show Checksums
ffp
gd80-10-26d1t01.flac:8d3708b60aac75b3e1f813dd5363bd14
gd80-10-26d1t02.flac:f5fdfb545bb750fe5fe57f571bb97683
gd80-10-26d1t03.flac:1bbb122e38016f9f207c58c26ecead4f
gd80-10-26d1t04.flac:42fe138655e9280131cd0e8eb8edf9a3
gd80-10-26d1t05.flac:6d26c209181eaed475e52fb0925914bc
gd80-10-26d1t06.flac:d0585a2f098bc0be6bf8f25e3a45f106
gd80-10-26d1t07.flac:eea472403352ea1303b700255a08cd1e
gd80-10-26d1t08.flac:f7f01015fd635a624c8116abb8d202fc
gd80-10-26d2t01.flac:d97c24363c1d2772ac5d2c9b37141c52
gd80-10-26d2t02.flac:44ba694ba6eb93eae1d6e2efd0405147
gd80-10-26d2t03.flac:42cdd59ad271dd5c330ae959a9074942
gd80-10-26d2t04.flac:f4a48d178afd70155edce8a5f1b56f99
gd80-10-26d2t05.flac:136144c1e09f6adaad62ade3537a23e6
gd80-10-26d2t06.flac:a9ca988752c97191881fbdc78243284a
gd80-10-26d2t07.flac:d71c1ddd67c7ad39783fd4647082a10c
gd80-10-26d2t08.flac:5e96cebedc5bb5c705f34a52a91ac533
gd80-10-26d2t09.flac:a246a5b9c1d45cdd727de49cd79dc1fc
gd80-10-26d3t01.flac:0a95057b70e7f9fa6c909857cc1dfbc9
gd80-10-26d3t02.flac:9319520605b188f8eceaf67ee5e0d7ff
gd80-10-26d3t03.flac:601f4e291c3106364e80016f64bfd9c6
gd80-10-26d3t04.flac:df1f767782f90c8e20be642693bb4a23
gd80-10-26d3t05.flac:e719359b054d47da612d8a137fcef66a
gd80-10-26d3t06.flac:8325c6177fd28d5a1ba6311315ab577a
gd80-10-26d3t07.flac:545e497c5ac320f7b8503afe4087fb42
gd80-10-26d3t08.flac:a5ceca8e6e7c4d810ceae44706ca4c7b
flac-md5
cae208793e88d6dcbb3aafd3ceb9dc22 *gd80-10-26d1t01.flac
59e3f9a843fdcd339c0d9adaa643c7ff *gd80-10-26d1t02.flac
32200c68e6f30525657f6e5082660380 *gd80-10-26d1t03.flac
13cc2428d5d156542eb25a93bb4acadd *gd80-10-26d1t04.flac
8e9e9351575caef0ca124c74e5941d38 *gd80-10-26d1t05.flac
d72648f4a6a4b5cf14867601d7862820 *gd80-10-26d1t06.flac
d88c675eb1b3e05e0d877d6a651bacfb *gd80-10-26d1t07.flac
4d6400540d23d521f63c741977e7c20e *gd80-10-26d1t08.flac
bc3c9d6030eae5fbac078e200fdbeafc *gd80-10-26d2t01.flac
0d0deaa2622e5b2070f2be863a458648 *gd80-10-26d2t02.flac
5744919e8fdbbc1a78627ecf46bec33d *gd80-10-26d2t03.flac
32dddaf79c8e8c55aad2cdaca7d32aed *gd80-10-26d2t04.flac
1b8bc8a85810015e02c10c8a3fbda1ce *gd80-10-26d2t05.flac
a2b1aed91f912acace2c4712c7a7646a *gd80-10-26d2t06.flac
fd1cbf9414fda431302bcff12de6574a *gd80-10-26d2t07.flac
b11a3b3ff76c6d09269d5f19781c6226 *gd80-10-26d2t08.flac
16b59528c7901021bcb79a6bdd2a9442 *gd80-10-26d2t09.flac
8fdaa593a7a8fb13076287819c3e66d2 *gd80-10-26d3t01.flac
2db45f2027acd568446c13a444262101 *gd80-10-26d3t02.flac
242ef7f33ed4fa0390d28df086fca9ff *gd80-10-26d3t03.flac
8f4a2e6ca2b29d487b5c91c0af44546f *gd80-10-26d3t04.flac
705e6aacaf08b0f5199c8c91ffa2ffdd *gd80-10-26d3t05.flac
cb783dbfcc4708541c6152c49e4f5431 *gd80-10-26d3t06.flac
62933460c8a39f68223caf1d8afbaf70 *gd80-10-26d3t07.flac
9dce7021398fbc210671493f7dc958bb *gd80-10-26d3t08.flac

Comments
Add Comment
Other Sources (comments)
Updated lineage: Recording... (1) Source: CAUD... (0) Updated Source; SBD... (13) PLEASE NOTE: This is a... (0) flac16; Recording... (0) flac16; Matrix by... (0) flac16; AUD: 2x... (0)
Date User Comment