Browse Collections Artists Sources   Search Dates

Add Show    List Management    Help


Grateful Dead 04/20/83
Providence Civic Center, Providence, RI
Comments Add Comment    Source Collectors    Add to Collection    Add to Want List    History
Source # 120287 Other Sources
Entered by Gary Field
Checksums ffp , flac-md5
Disc Counts 0 / 0
Media Size
Uncompressed: 2.54 GB (2729730782 bytes)
Date Circulated
Date Added
05/22/2012
05/22/2012
Source Summary flac24; AUD: 2x Nakamichi CM300 w/CP-1 cardioid capsules > Sony TC-D5M > Maxell MX90's, floor center section 23rd row, taped by Tim Friend & Joe Morrone. Transfer: MAC > Nakamichi DR-2 > Edirol FA-66 > Wavelab 2448 > CD-Wave > TLH > FLAC 2448 tagged. Transferred by Andrew F. 05/2012 
  Archive
Source Information - Download Text | Download Zip
GRATEFUL DEAD
Civic Center
Providence RI
04-20-1983

24bit/48kHz file-set

s1t01 crowd & tuning
s1t02 Touch of Grey >
s1t03 Promised Land
s1t04 Loser
s1t05 Minglewood Blues
s1t06 Ramble on Rose
s1t07 Me & My Uncle >
s1t08 Cumberland Blues
s1t09 Looks Like Rain
s1t10 China Cat Sunflower >
s1t11 I Know You Rider

s2t01 Brother Esau >
s2t02 Maybe You Know
s2t03 Bertha >
s2t04 Estimated Prophet >
s2t05 Eyes of the World >
s2t06 Drums >
s2t07 Space >
s2t08 Throwing Stones >
s2t09 Morning Dew >
s2t10 Sugar Magnolia
s2t11 Encore: Don't Ease Me In

AUD: 2x Nakamichi CM300 w/CP-1 cardioid capsules > Sony TC-D5M > Maxell
MX90's, floor center section 23rd row, taped by Tim Friend & Joe Morrone.

Transfer: MAC > Nakamichi DR-2 > Edirol FA-66 > Wavelab 2448 > CD-Wave >
TLH > FLAC 2448 tagged. Transferred by Andrew F. 05/2012

Notes: P.A. mix issues during Touch. Patches as follows: ID-102040, crowd
end of Cumberland 6:24 > LLRain 0:10, ID-92322 Drums 4:18 > Space 0:35.

    length     expanded size    cdr  WAVE problems  fmt   ratio  filename
     1:08.373      19691564 B   cxx   --   ---xx   flac  0.6872  gd1983-04-20s1t01.flac
     6:25.147     110922284 B   cxx   --   ---xx   flac  0.7411  gd1983-04-20s1t02.flac
     5:00.973      86680364 B   cxx   --   ---xx   flac  0.7352  gd1983-04-20s1t03.flac
     7:10.933     124108844 B   cxx   --   ---xx   flac  0.7246  gd1983-04-20s1t04.flac
     8:37.667     149088044 B   cxx   --   ---xx   flac  0.7371  gd1983-04-20s1t05.flac
     7:31.440     130014764 B   cxx   --   ---xx   flac  0.7270  gd1983-04-20s1t06.flac
     3:15.027      56167724 B   cxx   --   ---xx   flac  0.7263  gd1983-04-20s1t07.flac
     6:42.627     115956524 B   cxx   --   ---xx   flac  0.7372  gd1983-04-20s1t08.flac
     7:41.600     132940844 B   cxx   --   ---xx   flac  0.7217  gd1983-04-20s1t09.flac
     6:07.200     105753644 B   cxx   --   ---xx   flac  0.7371  gd1983-04-20s1t10.flac
     6:02.123     104291570 B   cxx   --   ---xx   flac  0.7414  gd1983-04-20s1t11.flac
     5:35.400      96595244 B   cxx   --   ---xx   flac  0.7280  gd1983-04-20s2t01.flac
     5:27.787      94402604 B   cxx   --   ---xx   flac  0.7395  gd1983-04-20s2t02.flac
     6:42.307     115864364 B   cxx   --   ---xx   flac  0.7478  gd1983-04-20s2t03.flac
    11:34.080     199895084 B   cxx   --   ---xx   flac  0.7373  gd1983-04-20s2t04.flac
    13:03.467     225638444 B   cxx   --   ---xx   flac  0.7452  gd1983-04-20s2t05.flac
     7:30.720     129807404 B   cxx   --   ---xx   flac  0.7132  gd1983-04-20s2t06.flac
     9:56.547     171805484 B   cxx   --   ---xx   flac  0.7173  gd1983-04-20s2t07.flac
     9:55.373     171467564 B   cxx   --   ---xx   flac  0.7364  gd1983-04-20s2t08.flac
     9:54.933     171340844 B   cxx   --   ---xx   flac  0.7331  gd1983-04-20s2t09.flac
     9:09.453     158242604 B   cxx   --   ---xx   flac  0.7513  gd1983-04-20s2t10.flac
     3:25.052      59054972 B   cxx   --   ---xx   flac  0.7453  gd1983-04-20s2t11.flac
   157:58.229    2729730782 B                            0.7342  (22 files)

No errors occured.




Show Checksums
ffp
gd1983-04-20s1t01.flac:0a233ff1678949fe44983ff67634c447
gd1983-04-20s1t02.flac:47a54c83649ae11029dd96a5a0b17066
gd1983-04-20s1t03.flac:a068d28677d446a8de60d82d37a80bc9
gd1983-04-20s1t04.flac:827964e504fb0afd4959119ee28ec76d
gd1983-04-20s1t05.flac:7c04015b380d3932727d5bcf89e9774a
gd1983-04-20s1t06.flac:a8c4c32a2e2139f94da07d398ea31908
gd1983-04-20s1t07.flac:de1ff7009e3edf0d76a6032c6fcec4dd
gd1983-04-20s1t08.flac:30358cc6e45aff5735a6be42eb209947
gd1983-04-20s1t09.flac:39d3e6f88bbf9185dd9e7c26e5d9719d
gd1983-04-20s1t10.flac:b8889c28ab0c6ff2d5e5dce838e5cead
gd1983-04-20s1t11.flac:6563d7d29e184eb47fc78db410302d78
gd1983-04-20s2t01.flac:79e7b7ac64b9d7f493b714266bc95a11
gd1983-04-20s2t02.flac:e922107e9ccd7e1e8ca9f1fabf303e38
gd1983-04-20s2t03.flac:423183b2a0b306c1de55deeb297f1006
gd1983-04-20s2t04.flac:fa4b7922f7e7985a1926acb146316f83
gd1983-04-20s2t05.flac:b2cf2a8ba95d38b6dfb365f8ed537a25
gd1983-04-20s2t06.flac:e0cd74989bae6639365e8e768735e9f0
gd1983-04-20s2t07.flac:2101442183ba0ca79464b242f7cba796
gd1983-04-20s2t08.flac:5becef621403ebc2797cdf8517759408
gd1983-04-20s2t09.flac:03c8b1f433512e467461d93d786838df
gd1983-04-20s2t10.flac:ce80a0b63fb9f5abdc9ef15ea1ead012
gd1983-04-20s2t11.flac:70827959a44670a1ed1267178e9205b4
flac-md5
7a307242f17bcd965c19d136ce8c738f *gd1983-04-20s1t01.flac
23da0ec9998055b0553498d0be4cb544 *gd1983-04-20s1t02.flac
918f255897a31f471534399d7d355fda *gd1983-04-20s1t03.flac
b4ed7391100b20966482ae2c3203b6c5 *gd1983-04-20s1t04.flac
b196f3072b8caf16a52d99ef78f54cfa *gd1983-04-20s1t05.flac
b0e7addea95c477bb1d80f4447bd9da0 *gd1983-04-20s1t06.flac
9f3e28aa422378013cf8289d33ff69ac *gd1983-04-20s1t07.flac
425bf931f0d216f26953bc33d8a86cae *gd1983-04-20s1t08.flac
9a506ee18588da45dfe2ba8c26a388df *gd1983-04-20s1t09.flac
e729a2f836be54d16ac2ae8102df239e *gd1983-04-20s1t10.flac
d2d27dc2aa0cae7fc8981e5755434830 *gd1983-04-20s1t11.flac
61f217bca236deccf9b5d34d8e680635 *gd1983-04-20s2t01.flac
1a126cc55aded66e2da29194ecc7c4b2 *gd1983-04-20s2t02.flac
37dbbe4e6150db993082c1f76ed91a33 *gd1983-04-20s2t03.flac
8e227862d0f4d788daf37fe0f4f1d326 *gd1983-04-20s2t04.flac
ffbd9ecec1a390107e24852b5c708c93 *gd1983-04-20s2t05.flac
a2f67983ff1e5b4f897b4f49248376a7 *gd1983-04-20s2t06.flac
5b6c3f055c7698eeb92d215c7923c4e3 *gd1983-04-20s2t07.flac
a51e0616fb2cd3fb766a93627b798881 *gd1983-04-20s2t08.flac
5db9397446abaef60c21785ad1d7b7d4 *gd1983-04-20s2t09.flac
9ba26691ba532aa1604f0700ed50a0e7 *gd1983-04-20s2t10.flac
2786a8dd911a37d4a9386238f45c8ad8 *gd1983-04-20s2t11.flac

Comments
Add Comment
Other Sources (comments)
FOB-Senn. 421?s>Sony... (0) flac16; SBD> Master... (0) flac16; AUD:... (0) flac16; Nakamichi... (0) flac16; Beyer M160's... (1) flac16; AUD: 2x... (1) flac24; Set 1... (1) flac16/48kHz;... (0) flac16; Set 1... (0) flac24; source: nak... (0)
Date User Comment
02/08/2013 nfagdtrfb text file correction: taped by Tim Friend & Joe Morrone, thanks guys!