Browse Collections Artists Sources   Search Dates

Add Show    List Management    Help


Grateful Dead 04/20/83
Providence Civic Center, Providence, RI
Comments Add Comment    Source Collectors    Add to Collection    Add to Want List    History
Source # 120288 Other Sources
Entered by Gary Field
Checksums flac-md5 , ffp
Disc Counts 0 / 0
Media Size
Uncompressed: 1.56 GB (1671962504 bytes)
Date Circulated
Date Added
05/22/2012
05/22/2012
Source Summary flac16; AUD: 2x Nakamichi CM300 w/CP-1 cardioid capsules > Sony TC-D5M > Maxell MX90's, floor center section 23rd row, taped by Tim Friend & Joe Morrone. Transfer: MAC > Nakamichi DR-2 > Edirol FA-66 > Wavelab 2448 > R8Brain > CD-Wave > TLH > FLAC 1644 tagged. Transferred by Andrew F. 05/2012 
  Archive
Source Information - Download Text | Download Zip
GRATEFUL DEAD
Civic Center
Providence RI
04-20-1983

16bit/44.1kHz file-set

s1t01 crowd & tuning
s1t02 Touch of Grey >
s1t03 Promised Land
s1t04 Loser
s1t05 Minglewood Blues
s1t06 Ramble on Rose
s1t07 Me & My Uncle >
s1t08 Cumberland Blues
s1t09 Looks Like Rain
s1t10 China Cat Sunflower >
s1t11 I Know You Rider

s2t01 Brother Esau >
s2t02 Maybe You Know
s2t03 Bertha >
s2t04 Estimated Prophet >
s2t05 Eyes of the World >
s2t06 Drums >
s2t07 Space >
s2t08 Throwing Stones >
s2t09 Morning Dew >
s2t10 Sugar Magnolia
s2t11 Encore: Don't Ease Me In

AUD: 2x Nakamichi CM300 w/CP-1 cardioid capsules > Sony TC-D5M > Maxell
MX90's, floor center section 23rd row, taped by Tim Friend & Joe Morrone.

Transfer: MAC > Nakamichi DR-2 > Edirol FA-66 > Wavelab 2448 > R8Brain >
CD-Wave > TLH > FLAC 1644 tagged. Transferred by Andrew F. 05/2012

Notes: P.A. mix issues during Touch. Patches as follows: ID-102040, crowd
end of Cumberland 6:24 > LLRain 0:10, ID-92322 Drums 4:18 > Space 0:35.

    length     expanded size    cdr  WAVE problems  fmt   ratio  filename
     1:08.28       12061100 B   ---   --   ---xx   flac  0.5576  gd1983-04-20s1t01.flac
     6:25.10       67937564 B   ---   --   ---xx   flac  0.6379  gd1983-04-20s1t02.flac
     5:00.74       53094092 B   ---   --   ---xx   flac  0.6279  gd1983-04-20s1t03.flac
     7:10.70       76016684 B   ---   --   ---xx   flac  0.6111  gd1983-04-20s1t04.flac
     8:37.51       91318796 B   ---   --   ---xx   flac  0.6307  gd1983-04-20s1t05.flac
     7:31.35       79638764 B   ---   --   ---xx   flac  0.6149  gd1983-04-20s1t06.flac
     3:14.74       34395692 B   ---   --   ---xx   flac  0.6126  gd1983-04-20s1t07.flac
     6:42.47       71023388 B   ---   --   ---xx   flac  0.6305  gd1983-04-20s1t08.flac
     7:41.45       81426284 B   ---   --   ---xx   flac  0.6060  gd1983-04-20s1t09.flac
     6:07.15       64774124 B   ---   --   ---xx   flac  0.6311  gd1983-04-20s1t10.flac
     6:02.10       63880364 B   ---   --   ---xx   flac  0.6385  gd1983-04-20s1t11.flac
     5:35.30       59164604 B   ---   --   ---xx   flac  0.6177  gd1983-04-20s2t01.flac
     5:27.59       57821612 B   ---   --   ---xx   flac  0.6348  gd1983-04-20s2t02.flac
     6:42.23       70966940 B   ---   --   ---xx   flac  0.6483  gd1983-04-20s2t03.flac
    11:34.06      122435756 B   ---   --   ---xx   flac  0.6314  gd1983-04-20s2t04.flac
    13:03.35      138203564 B   ---   --   ---xx   flac  0.6445  gd1983-04-20s2t05.flac
     7:30.54       79507052 B   ---   --   ---xx   flac  0.5901  gd1983-04-20s2t06.flac
     9:56.41      105230876 B   ---   --   ---xx   flac  0.5990  gd1983-04-20s2t07.flac
     9:55.28      105023900 B   ---   --   ---xx   flac  0.6297  gd1983-04-20s2t08.flac
     9:54.71      104948636 B   ---   --   ---xx   flac  0.6243  gd1983-04-20s2t09.flac
     9:09.33       96921260 B   ---   --   ---xx   flac  0.6527  gd1983-04-20s2t10.flac
     3:25.04       36171452 B   ---   --   ---xx   flac  0.6454  gd1983-04-20s2t11.flac
   157:58.18     1671962504 B                            0.6263  (22 files)

No errors occured.




Show Checksums
flac-md5
a67afaf28f210b6154741706660b1dbb *gd1983-04-20s1t01.flac
de64e6e96918905cfcc8f232f56e74cd *gd1983-04-20s1t02.flac
12056c4ca4655b489e18e18fdc3eeb96 *gd1983-04-20s1t03.flac
615511754f3016332949ac81bb32ab7f *gd1983-04-20s1t04.flac
2a890ee5e003c53b883540a507627412 *gd1983-04-20s1t05.flac
d86e1fa4e21aad7d25661249f028d889 *gd1983-04-20s1t06.flac
38c39d5d946103b790654c0502ce35a7 *gd1983-04-20s1t07.flac
3c3ffb36cf45edc2220ba9487dcd9573 *gd1983-04-20s1t08.flac
b598abaec61e44bad1713a0b3bf4a458 *gd1983-04-20s1t09.flac
036c6e97424c3e5c8e4713a0d493805e *gd1983-04-20s1t10.flac
00174bb3846958f06582cbefc092f536 *gd1983-04-20s1t11.flac
9cb824300dd2919dc1dbb9500fee4627 *gd1983-04-20s2t01.flac
47585603bcbf56724b7bc23872fea6f7 *gd1983-04-20s2t02.flac
84515839d8a7109d198a7f9d96645a59 *gd1983-04-20s2t03.flac
c66ced3a82309fcdaa368e5441d547d3 *gd1983-04-20s2t04.flac
ba5cc2e707762fa33d173049e0452b72 *gd1983-04-20s2t05.flac
8bf8b9202e944e640a66719445d3cb25 *gd1983-04-20s2t06.flac
e618cc481ba7c13873ea42141406e9b4 *gd1983-04-20s2t07.flac
52715117ddfa6f108d279d58197bb2a9 *gd1983-04-20s2t08.flac
83cf19a60f51b9d8a0a2687513ac2e2b *gd1983-04-20s2t09.flac
a64371de4f1a3e65fc37bf25ee94a033 *gd1983-04-20s2t10.flac
4dbbf70ec32dcd3459d1f0fdf1d39043 *gd1983-04-20s2t11.flac
ffp
gd1983-04-20s1t01.flac:77fdcdd96146ec3805d7af6f5ea99c6c
gd1983-04-20s1t02.flac:58cad52670a62f875d08b9c3612b1314
gd1983-04-20s1t03.flac:0b12c0c2ff7790ec762a6898432f7445
gd1983-04-20s1t04.flac:122f452bcd8a1cfa6ac01b47f207eba8
gd1983-04-20s1t05.flac:f33f33dbf3a376c262077f0fb82cee63
gd1983-04-20s1t06.flac:a0d9303ade6d1ba08096ed73bafa54bb
gd1983-04-20s1t07.flac:06947a506915e29facbec5bf118790e1
gd1983-04-20s1t08.flac:97c9f0cb582c2f4534caa43030a64717
gd1983-04-20s1t09.flac:d4f4ddfa3dba9217832094f2fa5c24b3
gd1983-04-20s1t10.flac:20e6405d7dd0e6613f91837ee2623bb1
gd1983-04-20s1t11.flac:cf3959af2eb7875efaf9239a3702c2b6
gd1983-04-20s2t01.flac:67ac5c910aa79fa636e8997097d6b612
gd1983-04-20s2t02.flac:f60b27d52eb00f410dcdc36ccb1fd5e0
gd1983-04-20s2t03.flac:e8fd6749b9857a93bae4ed3243a1d743
gd1983-04-20s2t04.flac:d2dafe7db60823676f8d9e3c2fbfe83e
gd1983-04-20s2t05.flac:f86db4c2a8270c2a8547db4e86893176
gd1983-04-20s2t06.flac:4e10c55978955da3095b7aa8e8445775
gd1983-04-20s2t07.flac:7116a4ec1fe32df7891ea66bc3af730d
gd1983-04-20s2t08.flac:ee6b9e0510dad637607b86b8dcc781cd
gd1983-04-20s2t09.flac:8c97366fb1a8056e562b045770d9db12
gd1983-04-20s2t10.flac:0e3d06821b309389d8282b0c9564cebf
gd1983-04-20s2t11.flac:b184c11b03823a58f14f8d43347a6ec6

Comments
Add Comment
Other Sources (comments)
FOB-Senn. 421?s>Sony... (0) flac16; SBD> Master... (0) flac16; AUD:... (0) flac16; Nakamichi... (0) flac16; Beyer M160's... (1) flac24; AUD: 2x... (1) flac24; Set 1... (1) flac16/48kHz;... (0) flac16; Set 1... (0) flac24; source: nak... (0)
Date User Comment
02/08/2013 nfagdtrfb text file correction: taped by Tim Friend & Joe Morrone, thanks guys!