Browse Collections Artists Sources   Search Dates

Add Show    List Management    Help


Grateful Dead 10/29/80
Radio City Music Hall, New York, NY
Comments Add Comment    Source Collectors    Add to Collection    Add to Want List    History
Source # 120307 Other Sources
Entered by Gary Field
Checksums flac-md5 , ffp
Disc Counts 0 / 0
Media Size Compressed: 1.4 GB (1500056369 bytes)
Uncompressed: 2.21 GB (2377645220 bytes)
Date Circulated
Date Added
05/25/2012
05/25/2012
Source Summary flac16; Loge Dead front center; Nak 700 > sony D-5> AMC> DAT> CDR> EAC> TLH> Flac; Recorded by Keith Gatto & Pete Jaeger; Extracted & flac encoded by Michael Turi; Patched and Edited in Sound Forge Pro. 10.0; Tracked in Audacity 2.0 by dusborne 05-22-2012 
  Archive
Source Information - Download Text | Download Zip
Grateful Dead
October 29, 1980
Radio City Music Hall
New York, NY

--------------------------------------------------------------------------------

Loge
Dead front center

Nak 700 > sony D-5> AMC> DAT> CDR> EAC> TLH> Flac
Recorded by Keith Gatto & Pete Jaeger

Extracted & flac encoded by Michael Turi

Patched and Edited in Sound Forge Pro. 10.0
Tracked in Audacity 2.0 by dusborne
05-22-2012

--------------------------------------------------------------------------------

---Thank You Keith Gatto and Pete Jaeger for recording the show.
---Thank You Michael Turi For extracting the files from your personal cd's.
---Thanks to germain for everything;seeding,encouragement,advice and tutelage.

--------------------------------------------------------------------------------

Set 1
101-d1t01 - Dire Wolf
102-d1t02 - On the Road Again
103-d1t03 - It Must Have Been The Roses
104-d1t04 - The Race Is On
105-d1t05 - Bird Song
106-d1t06 - Heaven Help the Fool
107-d1t07 - Oh Babe It Ain't No Lie ->
108-d1t08 - Ripple

--Set 2--
201-d1t09 - Tuning
202-d1t10 - Feel Like a Stranger ->
203-d1t11 - Franklin's Tower
204-d2t01 - Me & My Uncle ->
205-d2t02 - Big River
206-d2t03 - Candyman ->
207-d2t04 - Little Red Rooster
208-d2t05 - Tennessee Jed
209-d2t06 - Looks Like Rain ->
210-d2t07 - Althea ->
211-d2t08 - The Music Never Stopped

--Set 3--
301-d2t09 - Tuning
302-d2t10 - China Cat Sunflower ->
303-d2t11 - I Know You Rider
304-d3t01 - Estimated Prophet ->
305-d3t02 - Terrapin Station ->
306-d3t03 - Drums ->
307-d3t04 - Space ->
308-d3t05 - The Wheel ->
309-d3t06 - Saint of Circumstance ->
310-d3t07 - Black Peter ->
311-d3t08 - Sugar Magnolia

--Encore--
312-d3t09 - U.S. Blues

---------------------------------------------------------------------------------------

Notes

---This source ran fast, I pitch corrected by -0.3%
---There are no patches, the entire show was recorded, just a few seconds of drums is missing
    due to a tape flip.
---Smoothed cuts with fades
---many mic bumps smoothed out as best as could be done without hurting music



Tagging notes:
Show information is embedded within the header of each flac file.
It will display on any player capable of directly playing flac
files. If converted to wav during processing, all tags will be
stripped, however audio data will remain unaffected. If you must
transcode to a lossy format, do so directly Flac > Lossy.
Use ffp to validate audio integrity.
Md5 values will change if tagging is altered.

dusborne 5-22-2012

-----------------------------------------------------------------------------------------
length     expanded size    cdr  WAVE problems  fmt   ratio  filename
     5:34.50       59035244 B   ---   --   ---xx   flac  0.6342  gd80-10-29d1t01.flac
     4:24.38       46659020 B   ---   --   ---xx   flac  0.6297  gd80-10-29d1t02.flac
     8:08.30       86153804 B   ---   --   ---xx   flac  0.6115  gd80-10-29d1t03.flac
     4:44.47       50208188 B   ---   --   ---xx   flac  0.6414  gd80-10-29d1t04.flac
     9:26.64       99992972 B   ---   --   ---xx   flac  0.6260  gd80-10-29d1t05.flac
     6:30.31       68868956 B   ---   --   ---xx   flac  0.6352  gd80-10-29d1t06.flac
     7:49.39       82823372 B   ---   --   ---xx   flac  0.5742  gd80-10-29d1t07.flac
     4:46.19       50495132 B   ---   --   ---xx   flac  0.6465  gd80-10-29d1t08.flac
     2:44.31       29002556 B   ---   --   ---xx   flac  0.5739  gd80-10-29d1t09.flac
     7:15.06       76748156 B   ---   --   ---xx   flac  0.6548  gd80-10-29d1t10.flac
    11:34.13      122452220 B   ---   --   ---xx   flac  0.6546  gd80-10-29d1t11.flac
     3:05.63       32782220 B   ---   --   ---xx   flac  0.6531  gd80-10-29d2t01.flac
     6:20.06       67046156 B   ---   --   ---xx   flac  0.6557  gd80-10-29d2t02.flac
     7:18.20       77310284 B   ---   --   ---xx   flac  0.6225  gd80-10-29d2t03.flac
    11:16.59      119385212 B   ---   --   ---xx   flac  0.6539  gd80-10-29d2t04.flac
     9:28.62      100341068 B   ---   --   ---xx   flac  0.6200  gd80-10-29d2t05.flac
     8:05.23       85608140 B   ---   --   ---xx   flac  0.6100  gd80-10-29d2t06.flac
     8:59.65       95232524 B   ---   --   ---xx   flac  0.6117  gd80-10-29d2t07.flac
     8:22.72       88722188 B   ---   --   ---xx   flac  0.6544  gd80-10-29d2t08.flac
     0:49.16        8681276 B   ---   --   ---xx   flac  0.5844  gd80-10-29d2t09.flac
     6:01.24       63736892 B   ---   --   ---xx   flac  0.6550  gd80-10-29d2t10.flac
     5:40.04       59985452 B   ---   --   ---xx   flac  0.6777  gd80-10-29d2t11.flac
    10:26.49      110541692 B   ---   --   ---xx   flac  0.6499  gd80-10-29d3t01.flac
    12:14.37      129564668 B   ---   --   ---xx   flac  0.6437  gd80-10-29d3t02.flac
    10:37.67      112524428 B   ---   --   ---xx   flac  0.5844  gd80-10-29d3t03.flac
     5:49.35       61645964 B   ---   --   ---xx   flac  0.5517  gd80-10-29d3t04.flac
     6:12.65       65773724 B   ---   --   ---xx   flac  0.6230  gd80-10-29d3t05.flac
     6:25.35       67996364 B   ---   --   ---xx   flac  0.6579  gd80-10-29d3t06.flac
     9:19.51       98727596 B   ---   --   ---xx   flac  0.6048  gd80-10-29d3t07.flac
     9:19.28       98673500 B   ---   --   ---xx   flac  0.6701  gd80-10-29d3t08.flac
     5:45.29       60926252 B   ---   --   ---xx   flac  0.6291  gd80-10-29d3t09.flac
   224:38.53     2377645220 B                            0.6309  (31 files)



Show Checksums
flac-md5
b1baf5958a99e59e54fb93a364519ea5 *gd80-10-29d1t01.flac
b631526eb9a297c6773baafdaed269ca *gd80-10-29d1t02.flac
169f0433fda694f0c1597d6bc893c959 *gd80-10-29d1t03.flac
155cdb81649edfaf914421bb993ac5bb *gd80-10-29d1t04.flac
474ed3f0af6175e06bf07162f8eed0b6 *gd80-10-29d1t05.flac
7b5946834a5d16e234d34ba4e62dd7dd *gd80-10-29d1t06.flac
9f895df6527f1c77ff59262963f8709a *gd80-10-29d1t07.flac
c41383f6cb780171c66495bcdd84962c *gd80-10-29d1t08.flac
29e2c928401dfaa7ad3402e13751ba1d *gd80-10-29d1t09.flac
c08a85ca523bb4ab8a54da5d1aa7a68e *gd80-10-29d1t10.flac
ceb63dba5bdefa1eec8b43ace108411a *gd80-10-29d1t11.flac
ff3c5f0398d235e893197c5294981f35 *gd80-10-29d2t01.flac
c8e7b9ada4a41d5e2f6c18e7cf3965db *gd80-10-29d2t02.flac
cdbaeb41fb76c6f3487b35d26b666411 *gd80-10-29d2t03.flac
643b211dc51086f8084b0cabde71d062 *gd80-10-29d2t04.flac
5155c4a19587e3a7d9027f6d87c0f841 *gd80-10-29d2t05.flac
f8baa738a3c4471d4f9a61fa85c7756e *gd80-10-29d2t06.flac
1c6df0b6850aba52c29f556341cf383d *gd80-10-29d2t07.flac
826fc3ee577268b2d7f8560c641b2ddf *gd80-10-29d2t08.flac
954f690f31e44946bc2e5c26a1659132 *gd80-10-29d2t09.flac
fa9b2c2ee9b61cf2e616a64d37293f8e *gd80-10-29d2t10.flac
5e0637b937e079562d639820f1d05163 *gd80-10-29d2t11.flac
f756f58cc033902fed90aaf21b4640bf *gd80-10-29d3t01.flac
439937248600c8dcca311654bd54c04c *gd80-10-29d3t02.flac
36d75ff99feb40a7886b0e0b5a257b6f *gd80-10-29d3t03.flac
57fb088378953c07c0a95a93c531459f *gd80-10-29d3t04.flac
e3b76d0a777c9ad55ec8b4691ada2f97 *gd80-10-29d3t05.flac
b39d5872ac57b9237a9cbc9dcc0125bf *gd80-10-29d3t06.flac
72c54e2f85fa63e5ba539577fb5877f4 *gd80-10-29d3t07.flac
fc9a99c31eabe6e7428e286a75e00a8c *gd80-10-29d3t08.flac
173bef2bc21ee0157c8a84dcb50ed192 *gd80-10-29d3t09.flac
ffp
gd80-10-29d1t01.flac:e940d4acbface8844a614d8ede33ffdc
gd80-10-29d1t02.flac:0e50cb96070dcf087d1d58183d70fb0f
gd80-10-29d1t03.flac:56f0bb4249da8604e510154812109147
gd80-10-29d1t04.flac:813c999afa566a6ee53d1920991754e4
gd80-10-29d1t05.flac:8aadf1f09877b4680665638b678177e8
gd80-10-29d1t06.flac:e4318e5c35a269a32857b2966cd85e0e
gd80-10-29d1t07.flac:2c12c2a33145b99fffa29399c8683dbf
gd80-10-29d1t08.flac:9b463b4f40ff236dab1c0b7f0da50a26
gd80-10-29d1t09.flac:aa595b6fc85b851ef63b8c11765c74f0
gd80-10-29d1t10.flac:ff4540994363c06910b717b607a55824
gd80-10-29d1t11.flac:bc8aa1d131e96cb11bab0da34c9381e1
gd80-10-29d2t01.flac:330fed26b1aaec7f6f51873ed01dea04
gd80-10-29d2t02.flac:da9716c434d22fa777fbb05ec73d9696
gd80-10-29d2t03.flac:c18a84880cce0492af117a05f6c7fffd
gd80-10-29d2t04.flac:6d05e1d890106dfa2db616bb35a1a831
gd80-10-29d2t05.flac:430ce73e0ef36316c7184dd601bb83c5
gd80-10-29d2t06.flac:bf6a00478722a6aaec0c0c99d3e58684
gd80-10-29d2t07.flac:cf9d557721f2dd9406b859550fbfa32e
gd80-10-29d2t08.flac:dcd0a7586c2d28d5ecaf800f60a4fed3
gd80-10-29d2t09.flac:91c729bd458436fa6296e51e8865d2e9
gd80-10-29d2t10.flac:441198f2ff8889d8da09425e3c785f3e
gd80-10-29d2t11.flac:7d3ac94cb4d273bf655388c1d01f2cb0
gd80-10-29d3t01.flac:d3b36c5daf7c5f140470d15da0d4d1ab
gd80-10-29d3t02.flac:3f6d249bd93fc485b42a77b93d76d849
gd80-10-29d3t03.flac:6d6a79f2753fadc1aaa205335494a3e8
gd80-10-29d3t04.flac:0bd295e8537bba3ba89a1a6ac4ae8bad
gd80-10-29d3t05.flac:62ed80b802d9c7c4bf491463ad5da94c
gd80-10-29d3t06.flac:f562954030a21c08221f7108dd6dbffd
gd80-10-29d3t07.flac:cdceb0c226a5e2f87e930e3f69571e77
gd80-10-29d3t08.flac:9e879bd932b72fbef46b73cbc83bf852
gd80-10-29d3t09.flac:638ac89cd81c0af50c19e3da225d13df

Comments
Add Comment
Other Sources (comments)
Recording by Jim Wise:... (2) flac16; **Partial... (0) flac16; Seamless... (1) flac16; Recording... (0) flac16; Partial... (0) flac16; AUD: 2x... (0) flac16; Partial Sets... (0) flac24; partial set... (0) flac16; partial set... (0) flac16; SBD DAT->... (0)
Date User Comment
01/11/2014 nfagdtrfb This recording is identical to ID-1953