Browse Collections Artists Sources   Search Dates

Add Show    List Management    Help


Grateful Dead 10/27/79
Cape Cod Coliseum, South Yarmouth, MA
Comments Add Comment    Source Collectors    Add to Collection    Add to Want List    History
Source # 120367 Other Sources
Entered by Matt Vernon
Checksums flac-md5 , ffp
Disc Counts 0 / 0
Media Size Compressed: 1.61 GB (1730322636 bytes)
Date Circulated
Date Added
05/26/2012
05/27/2012
Source Summary flac16; Sennheiser 441's > Nakamichi 550 > CM > C1 > C2 (TDK SA-C90); Cassette (Nakamichi DR-1) > Korg MR-1000 (1-bit/5.6MHz) > Audiogate (1-bit/5.6MHz > 16-bit/44.1KHz) > Soundforge 9 > CD Wave Editor > Trader's Little Helper > Flac16; Transfer, edit/patch, and pitch correction by Bob Morris, May 2012. 
  Archive
Source Information - Download Text | Download Zip
Grateful Dead - October 27, 1979
Cape Code Coliseum - South Yarmouth, Massachusetts

Sennheiser 441's > Nakamichi 550 > CM > C1 > C2 (TDK SA-C90)

Cassette (Nakamichi DR-1) > Korg MR-1000 (1-bit/5.6MHz) >
Audiogate (1-bit/5.6MHz > 16-bit/44.1KHz) > Soundforge 9 >
CD Wave Editor > Trader's Little Helper > Flac16

Disc One

Set 1:

01 Jack Straw
02 Candyman
03 Me and My Uncle ->
04 Big River
05 Brown-Eyed Women
06 Easy To Love You
07 All New Minglewood Blues
08 Stagger Lee
09 Lost Sailor ->
10 Saint of Circumstance ->
11 Deal

Disc Two

Set 2:

01 tuning
02 Dancin' in the Streets ->
03 Franklin's Tower

Disc Three (Set 2 cont.)

01 He's Gone ->
02 The Other One ->
03 Drums ->
04 Not Fade Away ->
05 Black Peter ->
06 Around and Around
07 One More Saturday Night (encore)

Notes:
- Recorded by Dave W; Dave D's C1.
- Rolfe's shnid 19416 supplies Brown-Eyed, Sat Night, and patches in:
  Big River (5:22-5:25); Sailor (0:00-5:01); Dancin' (7:52);
  Drums (0:01-6:11); NFA (0:00-0:19).
- Right channel dropouts patched with left channel in:
  Stagger (0:52-1:03); Deal (1:24, 2:28, 3:56); NFA (1:41, 1:47-1:51).
- Thanks to Dave W, Dave D, dnick926, and gdvault.com.
- Transfer, edit/patch, and pitch correction by Bob Morris, May 2012.


shntool 3.0.4
Copyright (C) 2000-2007 Jason Jordan

    length     expanded size    cdr  WAVE problems  fmt   ratio  filename
     6:28.73       68614940 B   ---   --   ---xx   flac  0.6313  gd79-10-27d1t01.flac
     7:16.53       77035100 B   ---   --   ---xx   flac  0.6050  gd79-10-27d1t02.flac
     3:05.43       32735180 B   ---   --   ---xx   flac  0.6416  gd79-10-27d1t03.flac
     6:41.39       70828172 B   ---   --   ---xx   flac  0.6478  gd79-10-27d1t04.flac
     5:29.54       58162652 B   ---   --   ---xx   flac  0.6384  gd79-10-27d1t05.flac
     3:57.10       41830364 B   ---   --   ---xx   flac  0.6213  gd79-10-27d1t06.flac
     6:46.56       71750156 B   ---   --   ---xx   flac  0.6109  gd79-10-27d1t07.flac
     8:05.25       85612844 B   ---   --   ---xx   flac  0.5772  gd79-10-27d1t08.flac
     6:31.56       69104156 B   ---   --   ---xx   flac  0.6194  gd79-10-27d1t09.flac
     5:26.51       57626396 B   ---   --   ---xx   flac  0.6195  gd79-10-27d1t10.flac
     5:50.32       61815308 B   ---   --   ---xx   flac  0.6272  gd79-10-27d1t11.flac
     0:48.10        8490764 B   ---   --   ---xx   flac  0.5431  gd79-10-27d2t01.flac
    13:47.47      145993388 B   ---   --   ---xx   flac  0.5826  gd79-10-27d2t02.flac
    19:29.23      206265740 B   ---   --   ---xx   flac  0.5762  gd79-10-27d2t03.flac
    15:42.13      166199420 B   ---   --   ---xx   flac  0.5957  gd79-10-27d3t01.flac
    10:14.58      108446060 B   ---   --   ---xx   flac  0.6119  gd79-10-27d3t02.flac
     6:21.57       67342508 B   ---   --   ---xx   flac  0.6188  gd79-10-27d3t03.flac
     9:03.44       95888732 B   ---   --   ---xx   flac  0.5941  gd79-10-27d3t04.flac
     9:26.15       99877724 B   ---   --   ---xx   flac  0.5646  gd79-10-27d3t05.flac
     7:32.13       79763420 B   ---   --   ---xx   flac  0.6122  gd79-10-27d3t06.flac
     5:22.59       56939612 B   ---   --   ---xx   flac  0.6502  gd79-10-27d3t07.flac
   163:29.06     1730322636 B                            0.6041  (21 files)


Show Checksums
flac-md5
71dcc88546fefd2ded896b3c463b92c9 *gd79-10-27d1t01.flac
a49f4f6864ab4f7cf45f80fa90b6dd4c *gd79-10-27d1t02.flac
5972799169c1a09b8641e857ab837b4a *gd79-10-27d1t03.flac
b6dea541a10c0b1a87dd30544b903861 *gd79-10-27d1t04.flac
93f7715ef96b6003cb61bb67d17af642 *gd79-10-27d1t05.flac
75ae2a0d71ed954ec4e570d1ec024bd5 *gd79-10-27d1t06.flac
f339cc388b610dbb01ca45ec24178849 *gd79-10-27d1t07.flac
233aeb432fe0dc78df5afc15b221f28f *gd79-10-27d1t08.flac
bbc336688660c98827c1849600804dfe *gd79-10-27d1t09.flac
c8c39e698dbb2f388525a6c5f180c6cc *gd79-10-27d1t10.flac
f696e2f097344a272ac666e04a30499b *gd79-10-27d1t11.flac
96467500c0d921c9f61aaf8ea3cd2d79 *gd79-10-27d2t01.flac
69fe4572737253b2504a9ea4e47270d8 *gd79-10-27d2t02.flac
00f1db97e263dc79aa78a9c1ba957381 *gd79-10-27d2t03.flac
1565b168e0267791de5b701935c8939a *gd79-10-27d3t01.flac
f9aa0ae501928089902f1df06f18bf4a *gd79-10-27d3t02.flac
19162d48538a76bca39b578b3163a0bb *gd79-10-27d3t03.flac
d9d1f63dbe7c275086bd1114a7b3ea53 *gd79-10-27d3t04.flac
4a8fd79758b17e993ef2a270da46d06a *gd79-10-27d3t05.flac
0c09e400be7c2099a79b654147138c31 *gd79-10-27d3t06.flac
5fe0472d62d91f92a6cb4831c66eec4a *gd79-10-27d3t07.flac
ffp
gd79-10-27d1t01.flac:f0a71f4217b7f871f8637b731d8542f6
gd79-10-27d1t02.flac:189f779830e0518bff49ba91c52ff8ee
gd79-10-27d1t03.flac:1c0e53b84ed8b6d522dd08790bcbf9b2
gd79-10-27d1t04.flac:48596b5a3c3cce81d935a2c7d954f749
gd79-10-27d1t05.flac:f94206680799d7a6aa616a88aa5aaec3
gd79-10-27d1t06.flac:c897fc9057fe8ef3a1c0e92dbe84f192
gd79-10-27d1t07.flac:e72703a97c9415c1915df396a61e4e5b
gd79-10-27d1t08.flac:a3cd9ae11001483b6e991c5fba09ad9e
gd79-10-27d1t09.flac:5c12a2be1807051f750455db662ce4d4
gd79-10-27d1t10.flac:99fa003ac60267bbc161358a5e6b5649
gd79-10-27d1t11.flac:a101dcf6861461962e16f6038bb4d021
gd79-10-27d2t01.flac:1d1b31c6f519eeda99588b844b564d3d
gd79-10-27d2t02.flac:5251e08d7e885d38e5d1d76d79c6c4ad
gd79-10-27d2t03.flac:073151c666135aae13a5985b02b41f43
gd79-10-27d3t01.flac:ee5372aa83f8d2d026943167efc00452
gd79-10-27d3t02.flac:244cc8d5ca3c4c7b6035290e28b993e6
gd79-10-27d3t03.flac:26f077018479d764287b9afbf8e46183
gd79-10-27d3t04.flac:1f076ef528ca5cb9efbcc4bc15950c87
gd79-10-27d3t05.flac:7321cf10d7fae2b060d7f19c2ece3cc4
gd79-10-27d3t06.flac:87d286ea4f0595c36c1196a5a45fd01c
gd79-10-27d3t07.flac:2fbf9722eaeaa9fdd9dec98fffdccaa7

Comments
Add Comment
Other Sources (comments)
SBD> [?]> DAT (D. DiProsa)>... (10) Master Soundboard Cassette... (9) Recording by Steve Rolfe:... (0) Set 2 Only: zero gen source... (0) Repatch of (1) flac16; Recording... (0) flac16; Recording... (0) flac16; SBD and... (0) flac16; Recording... (0) flac16; Recording... (0) flac16; Matrix by... (0) flac16; AUD: 3x... (0) flac24; Recorded... (0)
Date User Comment