Browse Collections Artists Sources   Search Dates

Add Show    List Management    Help


Grateful Dead 10/15/81
Club Melk Weg, Amsterdam, Netherlands
Comments Add Comment    Source Collectors    Add to Collection    Add to Want List    History
Source # 120382 Other Sources
Entered by Matt Vernon
Checksums flac-md5 , ffp
Disc Counts 0 / 0
Media Size Compressed: 1.29 GB (1389221484 bytes)
Date Circulated
Date Added
05/28/2012
05/28/2012
Source Summary flac16; Beyer M-160 (x2) > Sony TCD5M / CM > C1 > C2 (Maxell XLII C90); Cassette 2 (Nakamichi DR-1) > Korg MR-1000 (1-bit/5.6MHz) > Audiogate (1-bit/5.6MHz > 16-bit/44.1KHz) > CD Wave Editor > Soundforge 9.0 (patch, pitch) > Trader's Little Helper > Flac16; Recorded by Rich S., transfer/edit (Mar 2010), patch/pitch (May 2012) by Bob Morris. 
  Archive
Source Information - Download Text | Download Zip
Grateful Dead - October 15, 1981
Melk Weg - Amsterdam, Netherlands

Beyer M-160 (x2) > Sony TCD5M / CM > C1 > C2 (Maxell XLII C90)

Cassette 2 (Nakamichi DR-1) > Korg MR-1000 (1-bit/5.6MHz) >
Audiogate (1-bit/5.6MHz > 16-bit/44.1KHz) > CD Wave Editor >
Soundforge 9.0 (patch, pitch) > Trader's Little Helper > Flac16

Disc One

Set 1:

01 tuning
02 New Minglewood Blues
03 They Love Each Other
04 El Paso
05 Friend of the Devil
06 Little Red Rooster
07 Althea
08 Beat it on Down the Line
09 Far From Me
10 Alabama Getaway ->
11 The Promised Land

Disc Two

Set 2:

01 Man Smart, Woman Smarter
02 He's Gone ->
03 Spoonful ->
04 Drums ->
05 Space ->
06 The Other One ->
07 Wharf Rat ->
08 Around & Around ->
09 Johnny B. Goode
10 It's All Over Now Baby Blue (encore)

Notes:
- Recorded by Rich S.
- Patched w/shnid 1406 in Drums (5:31-6:07) & Space (0:00-1:06).
- Right-channel dropouts patched with left channel in:
- Beat It (0:08-0:09); Far From Me (0:00-0:04).
- Thanks to Rich S, dnick926, and gdvault.com.
- Transfer/edit (Mar 2010), patch/pitch (May 2012) by Bob Morris.


shntool 3.0.4
Copyright (C) 2000-2007 Jason Jordan

    length     expanded size    cdr  WAVE problems  fmt   ratio  filename
     0:37.39        6618572 B   ---   --   ---xx   flac  0.4883  gd81-10-15d1t01.flac
     7:30.59       79518812 B   ---   --   ---xx   flac  0.5661  gd81-10-15d1t02.flac
     6:49.24       72204092 B   ---   --   ---xx   flac  0.5472  gd81-10-15d1t03.flac
     5:24.24       57210092 B   ---   --   ---xx   flac  0.5680  gd81-10-15d1t04.flac
     7:14.17       76597628 B   ---   --   ---xx   flac  0.5616  gd81-10-15d1t05.flac
     8:50.71       93659036 B   ---   --   ---xx   flac  0.5658  gd81-10-15d1t06.flac
     8:39.38       91641020 B   ---   --   ---xx   flac  0.5626  gd81-10-15d1t07.flac
     3:14.01       34223996 B   ---   --   ---xx   flac  0.5560  gd81-10-15d1t08.flac
     3:36.16       38140076 B   ---   --   ---xx   flac  0.5427  gd81-10-15d1t09.flac
     5:07.19       54199532 B   ---   --   ---xx   flac  0.5517  gd81-10-15d1t10.flac
     4:19.29       45755852 B   ---   --   ---xx   flac  0.5496  gd81-10-15d1t11.flac
     7:42.28       81562700 B   ---   --   ---xx   flac  0.5361  gd81-10-15d2t01.flac
    11:35.69      122760332 B   ---   --   ---xx   flac  0.5385  gd81-10-15d2t02.flac
     6:10.63       65416220 B   ---   --   ---xx   flac  0.5354  gd81-10-15d2t03.flac
     6:07.41       64835276 B   ---   --   ---xx   flac  0.5180  gd81-10-15d2t04.flac
     2:26.58       25890860 B   ---   --   ---xx   flac  0.5098  gd81-10-15d2t05.flac
     8:22.20       88599884 B   ---   --   ---xx   flac  0.5386  gd81-10-15d2t06.flac
    11:22.34      120384812 B   ---   --   ---xx   flac  0.5416  gd81-10-15d2t07.flac
     4:01.69       42674732 B   ---   --   ---xx   flac  0.5377  gd81-10-15d2t08.flac
     4:22.23       46270940 B   ---   --   ---xx   flac  0.5470  gd81-10-15d2t09.flac
     7:39.38       81057020 B   ---   --   ---xx   flac  0.5444  gd81-10-15d2t10.flac
   131:15.30     1389221484 B                            0.5468  (21 files)


Show Checksums
flac-md5
918aa828b75e20488f7e3eb73fb22850 *gd81-10-15d1t01.flac
7360890a5fdd41d2c2ba3b17bcafc9ae *gd81-10-15d1t02.flac
73fbfddad9ac249c1f66cddfee44e3e2 *gd81-10-15d1t03.flac
ac76df221eee6c34cecdcd59c331bf66 *gd81-10-15d1t04.flac
e82d85c39e41efbb1779e297dc174560 *gd81-10-15d1t05.flac
6d6a5b77c49210b1c985740fb6239ff0 *gd81-10-15d1t06.flac
f95c2416d028dbb215e90a9c83bc0f0c *gd81-10-15d1t07.flac
849ddbbb704d8fe781372ec2d978eb8e *gd81-10-15d1t08.flac
2b59d8fbec47f4c11278fa4f00611c6b *gd81-10-15d1t09.flac
20e65731e2458b2efec22a03924ff750 *gd81-10-15d1t10.flac
7e1a67c58ea49a4fbe107f724e8f054e *gd81-10-15d1t11.flac
32ff4a2ad71b5bb2c3a7f8d0391e697f *gd81-10-15d2t01.flac
4710e8cb009749a0d78ffa0cf53bc47d *gd81-10-15d2t02.flac
a42f14b74c2f24f8e70ff59d25557a8e *gd81-10-15d2t03.flac
5f8f7fa3a5105d30cd6f3330ffd93024 *gd81-10-15d2t04.flac
e81e4557e8e4ec955e301244bd6eb6ec *gd81-10-15d2t05.flac
7d41963b8f015c2bbebb02855a8988fc *gd81-10-15d2t06.flac
be052af2a879331ef4a313c9c5b69761 *gd81-10-15d2t07.flac
67854945eea76a9fb75e634f0ac02f9e *gd81-10-15d2t08.flac
7731d317fb9671c378b85f6b739c70a6 *gd81-10-15d2t09.flac
f3d4d09f70ee4e8d8eda59a6a120238d *gd81-10-15d2t10.flac
ffp
gd81-10-15d1t01.flac:c1da2350bb4179e338776d378ef8fa91
gd81-10-15d1t02.flac:f86c6ab8606c2b1672ab2f34ac30644c
gd81-10-15d1t03.flac:7ceb5139efaa0b24cafb6ae4d8e5de2c
gd81-10-15d1t04.flac:c18b70aa9c28fe88f95da7666b2427b8
gd81-10-15d1t05.flac:b613b639df8b33c48d8e32fc277006bc
gd81-10-15d1t06.flac:b8494fdd5fd6120a46760b720d606043
gd81-10-15d1t07.flac:9ba9c710dcd83fad55a961ac2b9e9ef4
gd81-10-15d1t08.flac:02883b58acb48cb6536b31e2734b2bd4
gd81-10-15d1t09.flac:a731e274bf283cd53e9781cd05829dc8
gd81-10-15d1t10.flac:1bfc62617f21b3e120747d358bfbb86b
gd81-10-15d1t11.flac:cdd6b66cd6ad1f4d9ed463ec0c6c42c8
gd81-10-15d2t01.flac:ef243188112dd10a6aeece946f2e521c
gd81-10-15d2t02.flac:9e85971e5b3b575d2ab1be6832893e38
gd81-10-15d2t03.flac:1d6cc93755b307590fc2297ab064e04f
gd81-10-15d2t04.flac:04dffb5be1bdc4f0cee432a37dc79d52
gd81-10-15d2t05.flac:b44036cb0f61e8991f75b31d06b3f9e4
gd81-10-15d2t06.flac:1deb32d388b3d2f5e1adfb69afca766c
gd81-10-15d2t07.flac:d5362887bcab032d3375da831971d59e
gd81-10-15d2t08.flac:27a371c96c297dc202e771634638fa83
gd81-10-15d2t09.flac:6ce716f3f821446b3949e8f2b8419bee
gd81-10-15d2t10.flac:585c02b7d766b0bafae031524c713ac3

Comments
Add Comment
Other Sources (comments)
AUD (FOB by unknown Belgian... (0) Source:Senheiser-pro-direct... (0) flac16; Aud master... (1) flac24; AUD: 2x... (0) flac16; AUD: 2x... (0)
Date User Comment
09/29/2013 nfagdtrfb One channel has phase inverted, looks like the Right.