Browse Collections Artists Sources   Search Dates

Add Show    List Management    Help


Grateful Dead 10/16/81
Club Melk Weg, Amsterdam, Netherlands
Comments Add Comment    Source Collectors    Add to Collection    Add to Want List    History
Source # 120383 Other Sources
Entered by Matt Vernon
Checksums ffp , flac-md5
Disc Counts 0 / 0
Media Size Compressed: 1.12 GB (1201176644 bytes)
Date Circulated
Date Added
05/28/2012
05/28/2012
Source Summary flac16; Beyer M-160 (x2) > Sony TCD5M / CM > C1 > C2 (Maxell XLII C90); Cassette 2 (Nakamichi DR-1) > Korg MR-1000 (1-bit/5.6MHz) > Audiogate (1-bit/5.6MHz > 16-bit/44.1KHz) > CD Wave Editor > Soundforge 9 (patch, pitch) > Trader's Little Helper > Flac16; Recorded by Rich S., transfer/edit (Mar 2010) & patch/pitch (May 2012) by Bob Morris. 
  Archive
Source Information - Download Text | Download Zip
Grateful Dead - October 16, 1981
Melk Weg - Amsterdam, Netherlands

Beyer M-160 (x2) > Sony TCD5M / CM > C1 > C2 (Maxell XLII C90)

Cassette 2 (Nakamichi DR-1) > Korg MR-1000 (1-bit/5.6MHz) >
Audiogate (1-bit/5.6MHz > 16-bit/44.1KHz) > CD Wave Editor >
Soundforge 9 (patch, pitch) > Trader's Little Helper > Flac16

Disc One

Set 1 (acoustic):

01 tuning
02 On The Road Again
03 Dire Wolf
04 The Monkey and the Engineer
05 Bird Song
06 Cassidy
07 Oh Babe It Ain't No Lie
08 The Race Is On
09 Ripple

Disc Two

Set 2:

01 Playing in the Band ->
02 Hully Gully ->
03 The Wheel ->
04 Samson and Delilah
05 Gloria ->
06 Lovelight ->
07 Goin' Down The Road ->
08 Playing in the Band reprise ->
09 Black Peter ->
10 Sugar Magnolia

Notes:
- Recorded by Rich S.
- Patched w/shnid 80060 in Playing (9:25-9:29) & GDTR (0:03-0:20).
- Thanks to Rich S, dnick926, and gdvault.com.
- Transfer/edit (Mar 2010) & patch/pitch (May 2012) by Bob Morris.


shntool 3.0.4
Copyright (C) 2000-2007 Jason Jordan

    length     expanded size    cdr  WAVE problems  fmt   ratio  filename
     1:32.41       16325276 B   ---   --   ---xx   flac  0.4400  gd81-10-16d1t01.flac
     3:36.03       38109500 B   ---   --   ---xx   flac  0.5083  gd81-10-16d1t02.flac
     4:39.22       49267388 B   ---   --   ---xx   flac  0.4999  gd81-10-16d1t03.flac
     2:54.31       30766556 B   ---   --   ---xx   flac  0.5121  gd81-10-16d1t04.flac
    10:03.66      106524476 B   ---   --   ---xx   flac  0.5115  gd81-10-16d1t05.flac
     5:12.10       55060364 B   ---   --   ---xx   flac  0.5194  gd81-10-16d1t06.flac
     6:07.34       64818812 B   ---   --   ---xx   flac  0.4998  gd81-10-16d1t07.flac
     3:28.37       36778268 B   ---   --   ---xx   flac  0.5181  gd81-10-16d1t08.flac
     4:25.73       46917740 B   ---   --   ---xx   flac  0.4937  gd81-10-16d1t09.flac
    12:01.26      127245596 B   ---   --   ---xx   flac  0.6070  gd81-10-16d2t01.flac
     3:10.56       33647756 B   ---   --   ---xx   flac  0.5949  gd81-10-16d2t02.flac
     5:53.48       62382140 B   ---   --   ---xx   flac  0.5947  gd81-10-16d2t03.flac
     7:41.60       81461564 B   ---   --   ---xx   flac  0.5881  gd81-10-16d2t04.flac
     7:34.61       80229116 B   ---   --   ---xx   flac  0.5876  gd81-10-16d2t05.flac
     6:04.48       64322540 B   ---   --   ---xx   flac  0.6072  gd81-10-16d2t06.flac
     5:46.30       61105004 B   ---   --   ---xx   flac  0.6231  gd81-10-16d2t07.flac
     4:00.59       42474812 B   ---   --   ---xx   flac  0.6152  gd81-10-16d2t08.flac
     9:17.04       98264252 B   ---   --   ---xx   flac  0.6145  gd81-10-16d2t09.flac
     9:57.70      105475484 B   ---   --   ---xx   flac  0.6221  gd81-10-16d2t10.flac
   113:29.29     1201176644 B                            0.5689  (19 files)



Show Checksums
ffp
gd81-10-16d1t01.flac:0bd10844490c11387198c47a0c59cbc2
gd81-10-16d1t02.flac:a0d3f862ff1ffec5349a96dc1e39afc0
gd81-10-16d1t03.flac:86dbd9deef3d70457c1a077f3841a867
gd81-10-16d1t04.flac:c451087b96927a627bd88e11d8498f7c
gd81-10-16d1t05.flac:7251c16ed0c173c44ad73b795cdf49e3
gd81-10-16d1t06.flac:13ece687d8af4ba24a25741132e7bcd8
gd81-10-16d1t07.flac:6d58357587c7ce14bad17d7cdae20370
gd81-10-16d1t08.flac:bf8cc778e5095a3f0e5929edee178cec
gd81-10-16d1t09.flac:e37b58ca933644d03fb1739e5d45cdbd
gd81-10-16d2t01.flac:77130e4e685f8f214978e3f23b756eda
gd81-10-16d2t02.flac:11cb08d195bb7af2165dc26490f550e7
gd81-10-16d2t03.flac:6f32cc8aff9a17bfb2185b67e61d2126
gd81-10-16d2t04.flac:0f291b7a313e3be4a9ecd42bbc5c207f
gd81-10-16d2t05.flac:9445391541dae9a2f2d603e81316323f
gd81-10-16d2t06.flac:8dcd7f2f5f4936594b8296280e238879
gd81-10-16d2t07.flac:d2d252d231638b081d799d87d9a80eb2
gd81-10-16d2t08.flac:f55647f5d2f4cd4b69aed605a9816296
gd81-10-16d2t09.flac:c8084c860fe03ff798f08c343fd00d40
gd81-10-16d2t10.flac:8dd68d9be5ccb02c1dc9a2d629a3400c
flac-md5
7837cad77dec3f47a5fb1b68810f891e *gd81-10-16d1t01.flac
21bbc431afea33b5d328899eabbf5d8c *gd81-10-16d1t02.flac
533462cf93fcf950ccf74b51bce3d9ad *gd81-10-16d1t03.flac
858b579998f081e013c6a9937e54434f *gd81-10-16d1t04.flac
bb9297b175e93c9a6458176add883195 *gd81-10-16d1t05.flac
648f0ce52c7d28f990eb02194c4af2c7 *gd81-10-16d1t06.flac
d0810a2c3b3692ed91334e7761c814ad *gd81-10-16d1t07.flac
ec23017a20b52265f68f70d3db834839 *gd81-10-16d1t08.flac
60996eae53fef56e3f54e933f906db79 *gd81-10-16d1t09.flac
fc8ef6b1aa8b0f38f7439e6932889883 *gd81-10-16d2t01.flac
430d909b7b9805f6ce89b274f8261d79 *gd81-10-16d2t02.flac
cc96c17980585d63b2f3fd82d5fb93a3 *gd81-10-16d2t03.flac
cacf631e9d7d1baa3a76ff7717d27c03 *gd81-10-16d2t04.flac
b68314087f8637239503ffbb7c7cb1a8 *gd81-10-16d2t05.flac
e71d3b5e37125f4c2667a27258c72d57 *gd81-10-16d2t06.flac
16d7b7a0580180553c9e1ac225e89c2f *gd81-10-16d2t07.flac
302d1127fe02c9dd6b4fc5e5b0ba6698 *gd81-10-16d2t08.flac
aca65ecfcb6147b231e7eb4c93dff266 *gd81-10-16d2t09.flac
8b4ff99b461adb92174557c0d87605ff *gd81-10-16d2t10.flac

Comments
Add Comment
Other Sources (comments)
SBD:MCASS> CASS> DAT> CDR,... (1) Source:Senheiser-pro-direct... (0) flac16; Aud master... (1) flac16; Sick Bits... (0) flac16; Recording... (0) flac16; Matrix by... (0) flac24; AUD: 2x... (0) flac16; AUD: 2x... (0)
Date User Comment
09/12/2013 nfagdtrfb Phase is inverted in one channel (left).