Browse Collections Artists Sources   Search Dates

Add Show    List Management    Help


Grateful Dead 12/27/87
Oakland-Alameda County Coliseum, Oakland, CA
Comments Add Comment    Source Collectors    Add to Collection    Add to Want List    History
Source # 120466 Other Sources
Entered by Matt Vernon
Checksums flac-md5 , ffp
Disc Counts 0 / 0
Media Size Compressed: 1.83 GB (1960293817 bytes)
Uncompressed: 2.52 GB (2701306360 bytes)
Date Circulated
Date Added
06/04/2012
06/04/2012
Source Summary flac24; OTS AUD: 2x Nakamichi CM300 w/CP4 shotguns > Sony TC-D5M > Maxell MX90's, w/no Dolby. Taped by Ted Gidley. Transfer: MAC > Nakamichi DR-2 > Edirol FA-66 > Wavelab > TLH > FLAC 2448 tagged. Transfer by Andrew F. 06/2012 
  Archive
Source Information - Download Text | Download Zip
GRATEFUL DEAD
Coliseum
Oakland CA
12-27-1987

24bit/48kHz file-set

s1t01 Touch of Grey >
s1t02 Jack Straw
s1t03 Peggy-O >
s1t04 Walkin' Blues
s1t05 Ramble on Rose
s1t06 crowd & tuning
s1t07 Me & My Uncle >
s1t08 Big River
s1t09 It Must Have Been the Roses
s1t10 Desolation Row >
s1t11 Don't Ease Me In

s2t01 crowd & tuning
s2t02 Playin' in the Band >
s2t03 Uncle John's Band >
s2t04 Estimated Prophet >
s2t05 Eyes of the World >
s2t06 Drums >
s2t07 Space >
s2t08 Dear Mister Fantasy >
s2t09 Stella Blue >
s2t10 Throwing Stones >
s2t11 Turn on Your Lovelight
s2t12 Encore: The Mighty Quinn

OTS AUD: 2x Nakamichi CM300 w/CP4 shotguns > Sony TC-D5M >
Maxell MX90's, w/no Dolby. Taped by Ted Gidley.

Transfer: MAC > Nakamichi DR-2 > Edirol FA-66 > Wavelab >
TLH > FLAC 2448 tagged. Transfer by Andrew F. 06/2012

Note: Patch from ID-97960 Drums 8:32 > 8:57.

    length     expanded size    cdr  WAVE problems  fmt   ratio  filename
     7:00.493     121102124 B   cxx   --   ---xx   flac  0.7355  gd1987-12-27s1t01.flac
     7:11.493     124270124 B   cxx   --   ---xx   flac  0.7339  gd1987-12-27s1t02.flac
     5:59.493     103534124 B   cxx   --   ---xx   flac  0.7306  gd1987-12-27s1t03.flac
     6:24.573     110757164 B   cxx   --   ---xx   flac  0.7159  gd1987-12-27s1t04.flac
     6:57.360     120199724 B   cxx   --   ---xx   flac  0.7285  gd1987-12-27s1t05.flac
     3:29.680      60387884 B   cxx   --   ---xx   flac  0.6720  gd1987-12-27s1t06.flac
     3:00.693      52039724 B   cxx   --   ---xx   flac  0.7392  gd1987-12-27s1t07.flac
     6:06.973     105688364 B   cxx   --   ---xx   flac  0.7359  gd1987-12-27s1t08.flac
     5:48.107     100254764 B   cxx   --   ---xx   flac  0.7163  gd1987-12-27s1t09.flac
     9:27.173     163345964 B   cxx   --   ---xx   flac  0.7303  gd1987-12-27s1t10.flac
     3:44.351      64613216 B   cxx   --   ---xx   flac  0.7413  gd1987-12-27s1t11.flac
     2:20.027      40327724 B   cxx   --   ---xx   flac  0.6742  gd1987-12-27s2t01.flac
     9:05.453     157090604 B   cxx   --   ---xx   flac  0.7347  gd1987-12-27s2t02.flac
     8:01.987     138812204 B   cxx   --   ---xx   flac  0.7425  gd1987-12-27s2t03.flac
    10:26.533     180441644 B   cxx   --   ---xx   flac  0.7403  gd1987-12-27s2t04.flac
     8:33.640     147928364 B   cxx   --   ---xx   flac  0.7471  gd1987-12-27s2t05.flac
     9:09.387     158223404 B   cxx   --   ---xx   flac  0.6998  gd1987-12-27s2t06.flac
     9:04.493     156814124 B   cxx   --   ---xx   flac  0.6790  gd1987-12-27s2t07.flac
     6:48.853     117749804 B   cxx   --   ---xx   flac  0.7324  gd1987-12-27s2t08.flac
     7:37.027     131623724 B   cxx   --   ---xx   flac  0.7058  gd1987-12-27s2t09.flac
     9:23.893     162401324 B   cxx   --   ---xx   flac  0.7403  gd1987-12-27s2t10.flac
     5:18.533      91737644 B   cxx   --   ---xx   flac  0.7382  gd1987-12-27s2t11.flac
     5:19.315      91962620 B   cxx   --   ---xx   flac  0.7357  gd1987-12-27s2t12.flac
   156:19.532    2701306360 B                            0.7257  (23 files)

No errors occured.



Show Checksums
flac-md5
8e72133b4754f1ef96a702b0c1fb0fd6 *gd1987-12-27s1t01.flac
e8f10b76d4cf66ad51e645a7a2e7cedb *gd1987-12-27s1t02.flac
6a1e3df8188b5fcf26718327d0e5ab8a *gd1987-12-27s1t03.flac
616295c7b892e8087aabc0a6454e2b2d *gd1987-12-27s1t04.flac
9b9a188910c57fedd3d2d6a3e8a64a90 *gd1987-12-27s1t05.flac
1f481c57244e14de91f36ed7233a79f3 *gd1987-12-27s1t06.flac
8aaee1088fe9c19bf0bbe10158382b88 *gd1987-12-27s1t07.flac
9a4bffc20d3ad3efa8b3a9148ef99229 *gd1987-12-27s1t08.flac
3149db367d34101a686f9a311fb41e3d *gd1987-12-27s1t09.flac
2b02b70f787091b1fb0b51b73c57157d *gd1987-12-27s1t10.flac
2ec0962ef4be5982178223963a32734a *gd1987-12-27s1t11.flac
dc5389521496aedaa2d8318edfa84980 *gd1987-12-27s2t01.flac
38284b17ebc8a59a3c1c4afa4525c861 *gd1987-12-27s2t02.flac
f27f1f291681b05b0d732c425ecc2b73 *gd1987-12-27s2t03.flac
f972b0292c5c7087770d6db146097e00 *gd1987-12-27s2t04.flac
9b272cdee4eb048d34071ecacf4cbe69 *gd1987-12-27s2t05.flac
3abe4d79a773038abaf75c2a335b3086 *gd1987-12-27s2t06.flac
5ad03c5c3f4509c2a88c840cd6bec800 *gd1987-12-27s2t07.flac
07d2551737f603a72d77b2cd25c841a3 *gd1987-12-27s2t08.flac
22836efef80312f13eccf43b7a924216 *gd1987-12-27s2t09.flac
dfbec41a3f3e1ad097164b5a2fab7781 *gd1987-12-27s2t10.flac
1041d58d5fa909f24cba49a3e37e3876 *gd1987-12-27s2t11.flac
7dae09b146f92ded7321c47693b077fa *gd1987-12-27s2t12.flac
ffp
gd1987-12-27s1t01.flac:8b5f335e18ecc7f02b5a7e1fe175cbdf
gd1987-12-27s1t02.flac:d38abf5a6de6715dee69aa5261d07a3c
gd1987-12-27s1t03.flac:bdd224ea11385e54abab4d9f1259f303
gd1987-12-27s1t04.flac:183361d9a3067f4f795a8e5b59b57a0b
gd1987-12-27s1t05.flac:028b96c1dacee3e189ea3502f1642a47
gd1987-12-27s1t06.flac:fbb073260277892c2bb7e56d8ef40e34
gd1987-12-27s1t07.flac:abd9e999c4287f389a68ce86bd796e48
gd1987-12-27s1t08.flac:a75b8600c4a8655eaf88a94df7ceab39
gd1987-12-27s1t09.flac:c2b720611f7240d1981ec2e9f844abeb
gd1987-12-27s1t10.flac:5d1daa71ad544dcea32d1e63b3b083a4
gd1987-12-27s1t11.flac:278be39c02343bc72c6dbaf04e84772c
gd1987-12-27s2t01.flac:589dfd5356ba14a31a20332b2664cc40
gd1987-12-27s2t02.flac:7b96b05137008979970deafb66569191
gd1987-12-27s2t03.flac:45481d38705a3f9058dd0aa4845ef0ad
gd1987-12-27s2t04.flac:3f90802827ce172a23f55f319451695f
gd1987-12-27s2t05.flac:c4cf4d1659d70114964cc78cc4d8eb06
gd1987-12-27s2t06.flac:124e9b31008dff6482135dff3fcb1c0c
gd1987-12-27s2t07.flac:4ccf06d28cf0b142808e3ec64478084b
gd1987-12-27s2t08.flac:9e4291dcc42f6e575f73486121f928d0
gd1987-12-27s2t09.flac:1b7972e5a96d2e0700393c785a62f718
gd1987-12-27s2t10.flac:72694b1913e49f5ed63b804a5e9cfac4
gd1987-12-27s2t11.flac:41aa377e08908e3d14439543d15e47d3
gd1987-12-27s2t12.flac:e739c9db94624a4638ea72fb778bcc1f

Comments
Add Comment
Other Sources (comments)
SBD -> Cm -> Dat (Tascam... (0) Soundboard-> Cassette... (0) flac16; Recording... (0) flac16; Source:... (1) flac24; Source:... (0) flac16; Source Info:... (0)
Date User Comment