Browse Collections Artists Sources   Search Dates

Add Show    List Management    Help


Grateful Dead 12/28/87
Oakland-Alameda County Coliseum, Oakland, CA
Comments Add Comment    Source Collectors    Add to Collection    Add to Want List    History
Source # 120467 Other Sources
Entered by Matt Vernon
Checksums flac-md5 , ffp
Disc Counts 0 / 0
Media Size Compressed: 1.81 GB (1940311451 bytes)
Uncompressed: 2.47 GB (2652103990 bytes)
Date Circulated
Date Added
06/04/2012
06/04/2012
Source Summary flac24; OTS AUD: 2x Nakamichi CM300 w/CP4 shotguns > Sony TC-D5M > Maxell MX90's, w/no Dolby. Taped by Ted Gidley. Transfer: MAC > Nakamichi DR-2 > Edirol FA-66 > Wavelab > TLH > FLAC 2448 tagged. Transfer by Andrew F. 06/2012 
  Archive
Source Information - Download Text | Download Zip
GRATEFUL DEAD
Coliseum
Oakland CA
12-28-1987

24bit/48kHz file-set

s1t01 crowd & tuning
s1t02 Feel Like a Stranger >
s1t03 Franklin's Tower
s1t04 Minglewood Blues
s1t05 Row Jimmy
s1t06 crowd & tuning
s1t07 Far From Me
s1t08 When I Paint My Masterpiece >
s1t09 Sugaree >
s1t10 Hell in a Bucket

s2t01 crowd & tuning
s2t02 China Cat Sunflower >
s2t03 I Know You Rider
s2t04 Cumberland Blues
s2t05 Women Are Smarter >
s2t06 Drums >
s2t07 Space >
s2t08 The Wheel >
s2t09 Truckin' >
s2t10 Smokestack Lightnin' >
s2t11 Black Peter >
s2t12 Sugar Magnolia
s2t13 Encore: Black Muddy River

OTS AUD: 2x Nakamichi CM300 w/CP4 shotguns > Sony TC-D5M >
Maxell MX90's, w/no Dolby. Taped by Ted Gidley.

Transfer: MAC > Nakamichi DR-2 > Edirol FA-66 > Wavelab >
TLH > FLAC 2448 tagged. Transfer by Andrew F. 06/2012

Note: Patches from ID-16585, crowd track (after Row Jimmy)
0:11 > 1:14, and The Wheel 0:04 > 0:11.

    length     expanded size    cdr  WAVE problems  fmt   ratio  filename
     2:08.613      37040684 B   cxx   --   ---xx   flac  0.6951  gd1987-12-28s1t01.flac
     8:09.413     140951084 B   cxx   --   ---xx   flac  0.7380  gd1987-12-28s1t02.flac
     8:52.240     153285164 B   cxx   --   ---xx   flac  0.7376  gd1987-12-28s1t03.flac
     9:09.413     158231084 B   cxx   --   ---xx   flac  0.7291  gd1987-12-28s1t04.flac
     9:09.133     158150444 B   cxx   --   ---xx   flac  0.7334  gd1987-12-28s1t05.flac
     2:58.413      51383084 B   cxx   --   ---xx   flac  0.6575  gd1987-12-28s1t06.flac
     4:50.093      83546924 B   cxx   --   ---xx   flac  0.7447  gd1987-12-28s1t07.flac
     5:19.373      91979564 B   cxx   --   ---xx   flac  0.7460  gd1987-12-28s1t08.flac
     9:51.240     170277164 B   cxx   --   ---xx   flac  0.7450  gd1987-12-28s1t09.flac
     6:46.725     117136958 B   cxx   --   ---xx   flac  0.7520  gd1987-12-28s1t10.flac
     1:30.080      25943084 B   cxx   --   ---xx   flac  0.6915  gd1987-12-28s2t01.flac
     5:31.160      95374124 B   cxx   --   ---xx   flac  0.7381  gd1987-12-28s2t02.flac
     6:31.320     112700204 B   cxx   --   ---xx   flac  0.7378  gd1987-12-28s2t03.flac
     6:59.533     120825644 B   cxx   --   ---xx   flac  0.7316  gd1987-12-28s2t04.flac
     7:09.107     123582764 B   cxx   --   ---xx   flac  0.7450  gd1987-12-28s2t05.flac
     8:18.000     143424044 B   cxx   --   ---xx   flac  0.7146  gd1987-12-28s2t06.flac
    10:31.947     182000684 B   cxx   --   ---xx   flac  0.6989  gd1987-12-28s2t07.flac
     5:30.347      95139884 B   cxx   --   ---xx   flac  0.7254  gd1987-12-28s2t08.flac
     6:43.400     116179244 B   cxx   --   ---xx   flac  0.7458  gd1987-12-28s2t09.flac
     2:31.800      43718444 B   cxx   --   ---xx   flac  0.7263  gd1987-12-28s2t10.flac
     9:17.680     160611884 B   cxx   --   ---xx   flac  0.7256  gd1987-12-28s2t11.flac
     9:14.667     159744044 B   cxx   --   ---xx   flac  0.7568  gd1987-12-28s2t12.flac
     6:24.992     110877788 B   cxx   --   ---xx   flac  0.7220  gd1987-12-28s2t13.flac
   153:28.691    2652103990 B                            0.7316  (23 files)

No errors occured.



Show Checksums
flac-md5
92484456ee57f81bdb5480a8232ae93a *gd1987-12-28s1t01.flac
d27b673cda24e2a0588bdfca60fd28a2 *gd1987-12-28s1t02.flac
3ede2dbbe477e55ef97e8b0ed68efdd7 *gd1987-12-28s1t03.flac
cd3a0efd4781e12b7068ae3011d1e158 *gd1987-12-28s1t04.flac
c7ee893597c544976a7e1a1406fed556 *gd1987-12-28s1t05.flac
c912fd65c60f6b80ac049bd1b4325dcb *gd1987-12-28s1t06.flac
9a4e77c38bb6d1112cd5a977e4779239 *gd1987-12-28s1t07.flac
2710ced388016a9a0b9c2531c080f806 *gd1987-12-28s1t08.flac
3207ff0742501cae13d822426119d18c *gd1987-12-28s1t09.flac
87bf239b0bc13cee93cd88a1c20399f4 *gd1987-12-28s1t10.flac
affdda814d5ba57f249bc745475dd9f4 *gd1987-12-28s2t01.flac
9cf12e1690bb6960ad86b37bcdd1bc58 *gd1987-12-28s2t02.flac
f2e2cd49628aa358a4b4dd0a7e26c65e *gd1987-12-28s2t03.flac
8857678ba967653782ecad05c902fc0a *gd1987-12-28s2t04.flac
090d065b89311d009de95ac598449087 *gd1987-12-28s2t05.flac
d56223b61146537df4a9ccdb270b6b7e *gd1987-12-28s2t06.flac
4b3532bb131753eec8c62550f0bc4eb1 *gd1987-12-28s2t07.flac
2a5892d22a05b2bde69d0c25e8e7f87c *gd1987-12-28s2t08.flac
41f6ddbfb1027f8d242a316c59b9a88b *gd1987-12-28s2t09.flac
e73ac0d25c436f4ab2e2dcf929be4c4c *gd1987-12-28s2t10.flac
05f1f45ad3ece4dade582b9fe5ca29c4 *gd1987-12-28s2t11.flac
5ed1b861e845656503e4e5a33fb39200 *gd1987-12-28s2t12.flac
811d57887aa7c0658090b0949890c17b *gd1987-12-28s2t13.flac
ffp
gd1987-12-28s1t01.flac:77b22291537a7f2caf8dbeb575376e29
gd1987-12-28s1t02.flac:286688ca87fa98f2b547c9e430a2041f
gd1987-12-28s1t03.flac:811e0c19c445acb3af4f0e0cb8f5967c
gd1987-12-28s1t04.flac:3f29d6c8c0f8b0d94b7fcbec93597671
gd1987-12-28s1t05.flac:680d26d354403fea431be4b40b1cc99a
gd1987-12-28s1t06.flac:e4662fc4a1645aafc8b66a471885022f
gd1987-12-28s1t07.flac:54038347eba375a029a3e6ac086025b8
gd1987-12-28s1t08.flac:221e9a0e7847be78f24fc67fef421bf4
gd1987-12-28s1t09.flac:18c9b17b247323c50e04a0c2594535c7
gd1987-12-28s1t10.flac:8b8db44b8cd852e60ed009f3b9aa093c
gd1987-12-28s2t01.flac:eb9092cdd733cf47a6be009b9e0dd1f3
gd1987-12-28s2t02.flac:f0e91459c0bee803600e3c622070f988
gd1987-12-28s2t03.flac:a1dc13c4c5e86116a7deccccbe99b74c
gd1987-12-28s2t04.flac:4aec266f31e5957dd1f11cb003310b7e
gd1987-12-28s2t05.flac:9371033b64edc94339ea75e7d35641e3
gd1987-12-28s2t06.flac:663d042facebb137093b89e0b30a9578
gd1987-12-28s2t07.flac:0eed91b4da7d7212d586fba52e0221c2
gd1987-12-28s2t08.flac:f1e5a1b1b9ddd795f933d57abc545371
gd1987-12-28s2t09.flac:8220e1bb1727f407dfafcf6605930b7f
gd1987-12-28s2t10.flac:ff39aff10b83d39b2543149e4a951c9b
gd1987-12-28s2t11.flac:4e0527e37c6b54e944d50b299ab2c3a2
gd1987-12-28s2t12.flac:5972fa394b5934369040caa66f93751b
gd1987-12-28s2t13.flac:459b84751b58b3320630529d89409059

Comments
Add Comment
Other Sources (comments)
Schoeps... (0) Ultramatrix... (2) Master Cassette Soundboard... (1) flac16; Recording... (0) flac24; Source:... (0)
Date User Comment