Browse Collections Artists Sources   Search Dates

Add Show    List Management    Help


Phish 06/07/12
DCU Center, Worcester, MA
Comments Add Comment    Source Collectors    Add to Collection    Add to Want List    History
Source # 120509 Other Sources
Entered by Jason Sobel
Checksums 16bit-FFP
Disc Counts 0 / 0
Media Size Compressed: 918.56 MB (963180303 bytes)
Date Circulated
Date Added
06/08/2012
06/08/2012
Source Summary flac16; (FOB) Schoeps MK22 > KC5 > CMC6 > Sonosax SX-R4 (24bit/96khz); WAV > USB > Macbook Pro > Wave Editor (tracking, fades, add gain, resample/dither to 16 bit/44.1k) > XAct (FLAC 8,ffp,fix sbe); Taped & Transferred by Andy Murray 
Source Information - Download Text | Download Zip
Phish
2012-06-07
DCU Center
Worcester, MA

Recorded and transferred by Andy Murray

Mics were 50' from stage DFC FOB (21cm,110 degrees)

Schoeps MK22>KC5>CMC6>Sonosax SXR4(24bit/96khz)

WAV>USB>Macbook Pro>Wave Editor(tracking,fades,add gain,resample(izotope)/dither(mbit+)to 16 bit/44.1k)>XAct(FLAC 8,ffp,fix sbe)

Big thanks to all of our blockers.

2 Sets

Set 1:

01 Intro
02 Buried Alive >
03 Runaway Jim[1] >
04 Torn and Frayed
05 Funky Bitch
06 The Moma Dance >
07 Rift
08 Nothing
09 Ocelot
10 Beauty of a Broken Heart
11 Possum[2]
12 Rocky Top

Set 2:

01 Intro
02 Carini >
03 Taste[3]
04 Ghost >
05 Boogie On Reggae Woman >
06 If I Could
07 Quinn the Eskimo >
08 Harry Hood >
09 Cavern >
10 Buried Alive

Encore:

11 Loving Cup

[1] Buried Alive tease.
[2] Beauty of a Broken Heart tease.
[3] Norwegian Wood tease.

Notes: Runaway Jim included a Buried Alive tease, Possum included a Beauty of a Broken Heart tease and Taste included a Norwegian Wood tease (all from Trey). If I Could was last played on November 21, 2009 (102 shows).

;flac fingerprints generated by xACT 2.18 on 2012-06-08 08:49:28 -0400

ph2012-06-07_mk22_1644_d1t01.flac:d31801dcba55d812cc520b9ae22736f2
ph2012-06-07_mk22_1644_d1t02.flac:315bab707e6f9cd7a0045caf60cbde02
ph2012-06-07_mk22_1644_d1t03.flac:6c8bfb13feab89eb622096174a84964e
ph2012-06-07_mk22_1644_d1t04.flac:10a349febe8bb0a84981f32b535b2143
ph2012-06-07_mk22_1644_d1t05.flac:e42aea5e47e0b03688a06950a3a965d0
ph2012-06-07_mk22_1644_d1t06.flac:9fd4bd26101bce4dd235d4b2aff41398
ph2012-06-07_mk22_1644_d1t07.flac:9ffe4205cf894d3fcf1b131546f807a9
ph2012-06-07_mk22_1644_d1t08.flac:a7aec9cd3fbbfe3f821931b51a1b867d
ph2012-06-07_mk22_1644_d1t09.flac:ef29af40adc636021e00e9784ce74363
ph2012-06-07_mk22_1644_d1t10.flac:0cdc8e76b40ba1c8db76aab69b885a4f
ph2012-06-07_mk22_1644_d1t11.flac:a0026307bf34a440a4ccbd057dc9566b
ph2012-06-07_mk22_1644_d1t12.flac:76820cb050609443bcbeabe422fc2bde
ph2012-06-07_mk22_1644_d2t01.flac:d9cd072d65330f72bbd265462ddb176a
ph2012-06-07_mk22_1644_d2t02.flac:211fe016b23fb58f574793141c3bcadf
ph2012-06-07_mk22_1644_d2t03.flac:13fa35205e51113b533b9d13de8539ed
ph2012-06-07_mk22_1644_d2t04.flac:a3c7851559179c86f53d56273cce9b11
ph2012-06-07_mk22_1644_d2t05.flac:70a91e8b1826e4f34130b1b430a5480e
ph2012-06-07_mk22_1644_d2t06.flac:2c7cc7a737315d1763c0f65e233f9250
ph2012-06-07_mk22_1644_d2t07.flac:edfe03c7d71df6b1b658267583203cc5
ph2012-06-07_mk22_1644_d2t08.flac:5656059a9b68ff87bcdaf8b7954fece6
ph2012-06-07_mk22_1644_d2t09.flac:f6777129e996ca5e9e2749e9b3286f86
ph2012-06-07_mk22_1644_d2t10.flac:abef49ac1ddc1895f8f1d40512e72247
ph2012-06-07_mk22_1644_d2t11.flac:4baf7a8fcedf4adcf496a92810f52f7a

    length     expanded size    cdr  WAVE problems  fmt   ratio  filename
     0:56.46        9986636 B   ---   --   -----    wav  1.0000  ph2012-06-07_mk22_1644_d1t01.wav
     2:55.51       30989996 B   ---   --   -----    wav  1.0000  ph2012-06-07_mk22_1644_d1t02.wav
     8:38.55       91504604 B   ---   --   -----    wav  1.0000  ph2012-06-07_mk22_1644_d1t03.wav
     8:14.07       87158108 B   ---   --   -----    wav  1.0000  ph2012-06-07_mk22_1644_d1t04.wav
     7:59.18       84537980 B   ---   --   -----    wav  1.0000  ph2012-06-07_mk22_1644_d1t05.wav
     7:28.29       79095452 B   ---   --   -----    wav  1.0000  ph2012-06-07_mk22_1644_d1t06.wav
     7:17.15       77122124 B   ---   --   -----    wav  1.0000  ph2012-06-07_mk22_1644_d1t07.wav
     5:44.32       60756908 B   ---   --   -----    wav  1.0000  ph2012-06-07_mk22_1644_d1t08.wav
    10:38.54      112670252 B   ---   --   -----    wav  1.0000  ph2012-06-07_mk22_1644_d1t09.wav
     5:09.63       54655820 B   ---   --   -----    wav  1.0000  ph2012-06-07_mk22_1644_d1t10.wav
     9:44.37      103104668 B   ---   --   -----    wav  1.0000  ph2012-06-07_mk22_1644_d1t11.wav
     4:00.55       42465404 B   ---   --   -----    wav  1.0000  ph2012-06-07_mk22_1644_d1t12.wav
     1:10.38       12437420 B   ---   --   -----    wav  1.0000  ph2012-06-07_mk22_1644_d2t01.wav
    11:47.53      124839500 B   ---   --   -----    wav  1.0000  ph2012-06-07_mk22_1644_d2t02.wav
     9:09.69       97005932 B   ---   --   -----    wav  1.0000  ph2012-06-07_mk22_1644_d2t03.wav
    14:04.14      148914572 B   ---   --   -----    wav  1.0000  ph2012-06-07_mk22_1644_d2t04.wav
    11:38.56      123258956 B   ---   --   -----    wav  1.0000  ph2012-06-07_mk22_1644_d2t05.wav
     9:16.55       98207804 B   ---   --   -----    wav  1.0000  ph2012-06-07_mk22_1644_d2t06.wav
     6:27.18       68309180 B   ---   --   -----    wav  1.0000  ph2012-06-07_mk22_1644_d2t07.wav
    12:04.22      127765388 B   ---   --   -----    wav  1.0000  ph2012-06-07_mk22_1644_d2t08.wav
     4:25.60       46887164 B   ---   --   -----    wav  1.0000  ph2012-06-07_mk22_1644_d2t09.wav
     3:29.38       36957020 B   ---   --   -----    wav  1.0000  ph2012-06-07_mk22_1644_d2t10.wav
     6:33.59       69464012 B   ---   --   -----    wav  1.0000  ph2012-06-07_mk22_1644_d2t11.wav
   168:56.44     1788094900 B                            1.0000  (23 files)


Show Checksums
16bit-FFP
ph2012-06-07_mk22_1644_d1t01.flac:d31801dcba55d812cc520b9ae22736f2
ph2012-06-07_mk22_1644_d1t02.flac:315bab707e6f9cd7a0045caf60cbde02
ph2012-06-07_mk22_1644_d1t03.flac:6c8bfb13feab89eb622096174a84964e
ph2012-06-07_mk22_1644_d1t04.flac:10a349febe8bb0a84981f32b535b2143
ph2012-06-07_mk22_1644_d1t05.flac:e42aea5e47e0b03688a06950a3a965d0
ph2012-06-07_mk22_1644_d1t06.flac:9fd4bd26101bce4dd235d4b2aff41398
ph2012-06-07_mk22_1644_d1t07.flac:9ffe4205cf894d3fcf1b131546f807a9
ph2012-06-07_mk22_1644_d1t08.flac:a7aec9cd3fbbfe3f821931b51a1b867d
ph2012-06-07_mk22_1644_d1t09.flac:ef29af40adc636021e00e9784ce74363
ph2012-06-07_mk22_1644_d1t10.flac:0cdc8e76b40ba1c8db76aab69b885a4f
ph2012-06-07_mk22_1644_d1t11.flac:a0026307bf34a440a4ccbd057dc9566b
ph2012-06-07_mk22_1644_d1t12.flac:76820cb050609443bcbeabe422fc2bde
ph2012-06-07_mk22_1644_d2t01.flac:d9cd072d65330f72bbd265462ddb176a
ph2012-06-07_mk22_1644_d2t02.flac:211fe016b23fb58f574793141c3bcadf
ph2012-06-07_mk22_1644_d2t03.flac:13fa35205e51113b533b9d13de8539ed
ph2012-06-07_mk22_1644_d2t04.flac:a3c7851559179c86f53d56273cce9b11
ph2012-06-07_mk22_1644_d2t05.flac:70a91e8b1826e4f34130b1b430a5480e
ph2012-06-07_mk22_1644_d2t06.flac:2c7cc7a737315d1763c0f65e233f9250
ph2012-06-07_mk22_1644_d2t07.flac:edfe03c7d71df6b1b658267583203cc5
ph2012-06-07_mk22_1644_d2t08.flac:5656059a9b68ff87bcdaf8b7954fece6
ph2012-06-07_mk22_1644_d2t09.flac:f6777129e996ca5e9e2749e9b3286f86
ph2012-06-07_mk22_1644_d2t10.flac:abef49ac1ddc1895f8f1d40512e72247
ph2012-06-07_mk22_1644_d2t11.flac:4baf7a8fcedf4adcf496a92810f52f7a

Comments
Add Comment
Other Sources (comments)
flac16; Microtech... (0) flac16; (FOB)... (1) flac16; Sennheiser... (0) flac24; Microtech... (0) flac24; (FOB)... (0) flac16; (FOB) DPA... (0) flac16; DPA 4011 >... (0) flac24; DPA 4011 >... (0) flac16; Microtech... (0) flac16; Schoeps mk41... (0) flac24; Schoeps mk41... (0) flac24; (FOB) DPA... (0) flac16; Microtech... (0) flac24; Microtech... (0) flac16; Schoeps... (0)
Date User Comment