Browse Collections Artists Sources   Search Dates

Add Show    List Management    Help


Grateful Dead 10/30/80
Radio City Music Hall, New York, NY
Comments Add Comment    Source Collectors    Add to Collection    Add to Want List    History
Source # 120537 Other Sources
Entered by Matt Vernon
Checksums ffp , flac-md5
Disc Counts 0 / 0
Media Size Compressed: 1.24 GB (1334656291 bytes)
Uncompressed: 1.95 GB (2093906952 bytes)
Date Circulated
Date Added
06/09/2012
06/09/2012
Source Summary flac16; Loge Dead front center; Nak 700 > sony D-5> AMC> DAT> CDR> EAC> TLH> Flac; Recorded by Keith Gatto & Pete Jaeger; Extracted & flac encoded by Michael Turi; Patched and Edited in Sound Forge Pro. 10.0; Tracked in Audacity 2.0 by dusborne 06-06-2012 
  Archive
Source Information - Download Text | Download Zip
Grateful Dead
October 30, 1980
Radio City Music Hall
New York, NY


--------------------------------------------------------------------------------

Loge
Dead front center

Nak 700 > sony D-5> AMC> DAT> CDR> EAC> TLH> Flac
Recorded by Keith Gatto & Pete Jaeger

Extracted & flac encoded by Michael Turi

Patched and Edited in Sound Forge Pro. 10.0
Tracked in Audacity 2.0 by dusborne
06-06-2012

--------------------------------------------------------------------------------

---Thank You Keith Gatto and Pete Jaeger for recording the show.
---Thank You Michael Turi For extracting the files from your personal cd's.
---Thanks to germain for everything;seeding,encouragement,advice and tutelage.

--------------------------------------------------------------------------------

Set 1:
d1t01 - Tuning
d1t02 - Deep Elem Blues
d1t03 - Dark Hollow
d1t04 - I've Been All Around This World
d1t05 - On The Road Again
d1t06 - To Lay Me Down
d1t07 - Heaven Help The Fool ->
d1t08 - Ripple

Set 2:
d1t09 - Tuning
d1t10 - Alabama Getaway ->
d1t11 - Promised Land
d1t12 - Peggy-O
d1t13 - Mama Tried ->
d1t14 - Mexicali Blues
d2t01 - Loser
d2t02 - New Minglewood Blues
d2t03 - Althea ->
d2t04 - Lost Sailor ->
d2t05 - Saint Of Circumstance

Set 3:
d2t06 - Tuning
d2t07 - Shakedown Street ->
d2t08 - Samson And Delilah
d3t01 - He's Gone ->
d3t02 - Truckin' ->
d3t03 - Drums ->
d3t04 - Space ->
d3t05 - The Other One ->
d3t06 - Wharf Rat ->
d3t07 - Good Lovin'

Encore:
d3t08 - Johnny B. Goode

---------------------------------------------------------------------------------------

Notes

---This source ran fast, I pitch corrected by -0.3%
---There are no patches, the entire show was recorded.
---Smoothed cuts with fades
---many mic bumps smoothed out as best as could be done without hurting music



Tagging notes:
Show information is embedded within the header of each flac file.
It will display on any player capable of directly playing flac
files. If converted to wav during processing, all tags will be
stripped, however audio data will remain unaffected. If you must
transcode to a lossy format, do so directly Flac > Lossy.
Use ffp to validate audio integrity.
Md5 values will change if tagging is altered.

dusborne 06-06-2012

--------------------------------------------------------------------------------------
length     expanded size    cdr  WAVE problems  fmt   ratio  filename
     1:09.64       12322172 B   ---   --   ---xx   flac  0.6195  gd80-10-30d1t01.flac
     6:32.64       69299372 B   ---   --   ---xx   flac  0.6368  gd80-10-30d1t02.flac
     5:28.62       58005068 B   ---   --   ---xx   flac  0.6325  gd80-10-30d1t03.flac
     6:57.11       73584716 B   ---   --   ---xx   flac  0.6090  gd80-10-30d1t04.flac
     5:15.01       55568396 B   ---   --   ---xx   flac  0.6473  gd80-10-30d1t05.flac
    10:30.40      111226124 B   ---   --   ---xx   flac  0.5942  gd80-10-30d1t06.flac
     7:52.27       83324348 B   ---   --   ---xx   flac  0.6206  gd80-10-30d1t07.flac
     4:47.31       50699756 B   ---   --   ---xx   flac  0.6226  gd80-10-30d1t08.flac
     1:43.06       18183356 B   ---   --   ---xx   flac  0.5960  gd80-10-30d1t09.flac
     4:42.50       49862444 B   ---   --   ---xx   flac  0.6738  gd80-10-30d1t10.flac
     4:35.02       48514748 B   ---   --   ---xx   flac  0.6689  gd80-10-30d1t11.flac
     7:42.01       81499196 B   ---   --   ---xx   flac  0.5969  gd80-10-30d1t12.flac
     2:34.55       27295004 B   ---   --   ---xx   flac  0.6711  gd80-10-30d1t13.flac
     5:01.14       53129372 B   ---   --   ---xx   flac  0.6675  gd80-10-30d1t14.flac
     8:19.37       88110668 B   ---   --   ---xx   flac  0.6447  gd80-10-30d2t01.flac
     7:39.06       80981756 B   ---   --   ---xx   flac  0.6415  gd80-10-30d2t02.flac
     8:10.50       86553644 B   ---   --   ---xx   flac  0.6022  gd80-10-30d2t03.flac
     6:31.23       69026540 B   ---   --   ---xx   flac  0.6080  gd80-10-30d2t04.flac
     6:38.69       70369532 B   ---   --   ---xx   flac  0.6496  gd80-10-30d2t05.flac
     1:33.20       16452284 B   ---   --   ---xx   flac  0.5853  gd80-10-30d2t06.flac
    12:51.54      136131452 B   ---   --   ---xx   flac  0.6589  gd80-10-30d2t07.flac
     7:03.69       74779532 B   ---   --   ---xx   flac  0.6806  gd80-10-30d2t08.flac
    14:09.23      149817740 B   ---   --   ---xx   flac  0.6285  gd80-10-30d3t01.flac
     9:25.31       99738956 B   ---   --   ---xx   flac  0.6895  gd80-10-30d3t02.flac
    10:39.18      112761980 B   ---   --   ---xx   flac  0.6278  gd80-10-30d3t03.flac
     2:37.37       27781868 B   ---   --   ---xx   flac  0.6001  gd80-10-30d3t04.flac
     6:12.11       65646716 B   ---   --   ---xx   flac  0.6767  gd80-10-30d3t05.flac
     9:25.15       99701324 B   ---   --   ---xx   flac  0.6170  gd80-10-30d3t06.flac
     7:08.02       75503948 B   ---   --   ---xx   flac  0.6611  gd80-10-30d3t07.flac
     4:32.23       48034940 B   ---   --   ---xx   flac  0.6594  gd80-10-30d3t08.flac
   197:50.16     2093906952 B                            0.6374  (30 files)


Show Checksums
ffp
gd80-10-30d1t01.flac:f27b668cd8f86f49f34e1493331dfb28
gd80-10-30d1t02.flac:50ae039f8da5984094c569f7396679fe
gd80-10-30d1t03.flac:ddb65d7eaeb32df796bd590229d85fca
gd80-10-30d1t04.flac:31227a463255259603eeec7f492b12ce
gd80-10-30d1t05.flac:85bc0a19a29b7029c8ae26bff8b4a0de
gd80-10-30d1t06.flac:ed5c00fb6cddbf4e50a0dc668a428c65
gd80-10-30d1t07.flac:91738560a50229bfbcf913852cfd0e04
gd80-10-30d1t08.flac:cd1ec052f8b84b9c2985d86440468844
gd80-10-30d1t09.flac:e7e3b3c6943ace042b60030cf1a1dc8a
gd80-10-30d1t10.flac:fae76f189b0bba80fa8665b810cdbc4a
gd80-10-30d1t11.flac:0ef102a11cba4c63167f4ee4b5c2ae00
gd80-10-30d1t12.flac:4b01c8cb7169baa032acc3ea3b0f58ba
gd80-10-30d1t13.flac:25fc896de8dddd6d0733924d005784f5
gd80-10-30d1t14.flac:a3ec5cc23123e187cb8279ae0d7d4c31
gd80-10-30d2t01.flac:e52ec8b3c70bfe5609c21b360f1ec7a8
gd80-10-30d2t02.flac:b950fc23cc9e09266801d80e82af17e6
gd80-10-30d2t03.flac:18bfae20f99ce8c9010373c01be16982
gd80-10-30d2t04.flac:4de6a5175fd6748d8b8fddd805d8c291
gd80-10-30d2t05.flac:03736318c60032da5379edd039ec037e
gd80-10-30d2t06.flac:fda0669c770a721d46b51bbfa4caaaa5
gd80-10-30d2t07.flac:c81046664a70d6c7557184acfa6281ce
gd80-10-30d2t08.flac:f06153f1a558deebdf51b46d0c41ba80
gd80-10-30d3t01.flac:dfd9ee980d0fd1d471541c4b0309d199
gd80-10-30d3t02.flac:f5ae24c8e8b5aaf4e778580365a5be1a
gd80-10-30d3t03.flac:df4795f761d8dcc458cc7a83122b4edd
gd80-10-30d3t04.flac:52aecbb685e27896c3729c4e8d9ef909
gd80-10-30d3t05.flac:8e959c16f50b5740c2ff1c11fab8f84e
gd80-10-30d3t06.flac:e2184210adf3bd7b2fe49436c9131929
gd80-10-30d3t07.flac:793e082cd4f7a61a5c015daa87cbc91b
gd80-10-30d3t08.flac:fbfa328fa7f89a94639f23fc7817c6f0
flac-md5
f2cf90c0803eb8f121276b96ef775b07 *gd80-10-30d1t01.flac
2f4e082ab8367f4c32845fdf5c81693e *gd80-10-30d1t02.flac
97a15d140c63e6bf4da2ba91501bc549 *gd80-10-30d1t03.flac
c91adc975c2bcdda10ae41e0f6e2387e *gd80-10-30d1t04.flac
5c9d83319fad69b9ee01883df4efecd4 *gd80-10-30d1t05.flac
dc13eb80d960f5de9893437b19d44823 *gd80-10-30d1t06.flac
4257b860f0fbf92de0a2f71a8e389961 *gd80-10-30d1t07.flac
e0fd44a3e612869ff6edbe56ebbf7ad8 *gd80-10-30d1t08.flac
def49dfba3f1228616246e62049a8408 *gd80-10-30d1t09.flac
7769381de1336ded7482a518cd953568 *gd80-10-30d1t10.flac
97f527b8047e234eabab7df3f586056a *gd80-10-30d1t11.flac
bc4a1d6b982821ab6fe29fe8eea724ad *gd80-10-30d1t12.flac
8a1f0516de761adfc60198365cb42569 *gd80-10-30d1t13.flac
7a69eaa3265f2d16340e8e703f4a750a *gd80-10-30d1t14.flac
b6e2e2358c374943ae2e9e721abe5766 *gd80-10-30d2t01.flac
bffe56ecb738686a463835352d0b9489 *gd80-10-30d2t02.flac
8b22fb7a649986335f9689b716e970bc *gd80-10-30d2t03.flac
84d483fd10a4f43d05f1f27ff6b6347f *gd80-10-30d2t04.flac
3a1e96b1e2a48f4f1a9fb7289a8982d7 *gd80-10-30d2t05.flac
7d85726e1c8e4903adce28f945f100aa *gd80-10-30d2t06.flac
2340de9369d7e0976dc3f4a4fbd4dafb *gd80-10-30d2t07.flac
91e7a12e8fe1d88a28b50fe9c44e9939 *gd80-10-30d2t08.flac
77a0cd5df082cc693137ef22bf46baf4 *gd80-10-30d3t01.flac
15175ea55335973fd1f0ff93c348f8b8 *gd80-10-30d3t02.flac
d2f66130b63c902235b8ea99e6462fc8 *gd80-10-30d3t03.flac
767f2ef0293657331c1eb7530a5695d8 *gd80-10-30d3t04.flac
9e2b8880fb65d6ab3d22d558d8a4b46d *gd80-10-30d3t05.flac
ae724c7a8046edb971d222ae47adb2f6 *gd80-10-30d3t06.flac
d79e67fe4ecfca18ed4a84a76898b270 *gd80-10-30d3t07.flac
79009bf109fd4fdc32140120590cb21d *gd80-10-30d3t08.flac

Comments
Add Comment
Other Sources (comments)
Recording by Jim Wise.... (2) flac16; Recording... (0) flac16; Source: 10Ó... (0)
Date User Comment