Browse Collections Artists Sources   Search Dates

Add Show    List Management    Help


Phish 06/08/12
DCU Center, Worcester, MA
Comments Add Comment    Source Collectors    Add to Collection    Add to Want List    History
Source # 120545 Other Sources
Entered by Jason Sobel
Checksums 16bit-FFP
Disc Counts 0 / 0
Media Size Compressed: 894.52 MB (937969496 bytes)
Date Circulated
Date Added
06/10/2012
06/10/2012
Source Summary flac16; (FOB) Schoeps MK22 > KC5 > CMC6 > Sonosax SX-R4 (24bit/96khz); WAV > USB > Macbook Pro > Wave Editor (tracking, fades, add gain, resample (izotope) / dither(mbit+) to 16 bit/44.1k) > XAct (FLAC 8, ffp, fix sbe); Taped & Transferred by Andy Murray 
Source Information - Download Text | Download Zip
Phish
2012-06-08
DCU Center
Worcester, MA

Recorded and transferred by Andy Murray

Mics were 40' from stage DFC FOB (21cm,110 degrees)

Schoeps MK22>KC5>CMC6>Sonosax SX-R4(24bit/96khz)

WAV>USB>Macbook Pro>Wave Editor(tracking,fades,add gain,resample(izotope)/dither(mbit+)to 16 bit/44.1k)>XAct(FLAC 8,ffp,fix sbe)

Big thanks to all of our blockers.

2 Sets

Set 1:

01 Intro
02 Free
03 Kill Devil Falls
04 Roses Are Free >
05 Theme From the Bottom >
06 Axilla
07 Julius
08 Bouncing Around the Room
09 Maze
10 Bathtub Gin

Set 2:

01 Intro
02 Down with Disease[1] >
03 Sand ->
04 Nellie Kane
05 Mike's Song >
06 Makisupa Policeman[2] >
07 Weekapaug Groove
08 Wading in the Velvet Sea
09 Also Sprach Zarathustra
10 Character Zero

Encore:

11 The Oh Kee Pa Ceremony >
12 Suzy Greenberg

[1] Unfinished.
[2] Keyword was "Sour Diesel."

;flac fingerprints generated by xACT 2.18 on 2012-06-10 08:56:21 -0400

ph2012-06-08_mk22_1644_d1t01.flac:d0ca06558d6b4643c13f2f5f39ab4017
ph2012-06-08_mk22_1644_d1t02.flac:59927501cca5978c82a02a8a2dbd75ff
ph2012-06-08_mk22_1644_d1t03.flac:38d801e02dedb9b681d2b19f11bb4e1e
ph2012-06-08_mk22_1644_d1t04.flac:78ac43ad073076438aea09f9fb81131f
ph2012-06-08_mk22_1644_d1t05.flac:76debf450a855d14f3a43107885d403f
ph2012-06-08_mk22_1644_d1t06.flac:d3ad7634ace362d26c35c5dc4caea72f
ph2012-06-08_mk22_1644_d1t07.flac:a9fe9984f3d342f67d5cda9735a55462
ph2012-06-08_mk22_1644_d1t08.flac:e8bbd4b54dcafc0a3ff4654dd08ab8b1
ph2012-06-08_mk22_1644_d1t09.flac:dddfc4d0f8482f6eaab5df8b23742cce
ph2012-06-08_mk22_1644_d1t10.flac:b4f3a2886e2a727c57c1120ba90b1089
ph2012-06-08_mk22_1644_d2t01.flac:dcb694a657b525e1d0a6236895857938
ph2012-06-08_mk22_1644_d2t02.flac:47680778df500c971edd5ead129c2898
ph2012-06-08_mk22_1644_d2t03.flac:e535bb308f854eab30d18513b4f33ba2
ph2012-06-08_mk22_1644_d2t04.flac:83e72a9c6a0ad324256df2281e85b142
ph2012-06-08_mk22_1644_d2t05.flac:1ca00e96277b27fc6a462cabf03ff0ef
ph2012-06-08_mk22_1644_d2t06.flac:c522d80e75988ef49dd428dbda237071
ph2012-06-08_mk22_1644_d2t07.flac:2d9b31759d25403810412d106c11fa8b
ph2012-06-08_mk22_1644_d2t08.flac:ffdbca130e12c4782d38b01558476f00
ph2012-06-08_mk22_1644_d2t09.flac:7cff2260825e77e26a28714ec2987a5b
ph2012-06-08_mk22_1644_d2t10.flac:a61380962ab19ceaaa3b64a845512959
ph2012-06-08_mk22_1644_d2t11.flac:8adc2c0274efbba67b10a76382f5ac48
ph2012-06-08_mk22_1644_d2t12.flac:2bac991a297817ca4eb77366c969b6af

    length     expanded size    cdr  WAVE problems  fmt   ratio  filename
     1:40.54       17767052 B   ---   --   -----    wav  1.0000  ph2012-06-08_mk22_1644_d1t01.wav
     8:45.38       92699420 B   ---   --   -----    wav  1.0000  ph2012-06-08_mk22_1644_d1t02.wav
     9:56.03      105141500 B   ---   --   -----    wav  1.0000  ph2012-06-08_mk22_1644_d1t03.wav
    10:08.65      107404124 B   ---   --   -----    wav  1.0000  ph2012-06-08_mk22_1644_d1t04.wav
     8:23.43       88830380 B   ---   --   -----    wav  1.0000  ph2012-06-08_mk22_1644_d1t05.wav
     3:25.62       36307868 B   ---   --   -----    wav  1.0000  ph2012-06-08_mk22_1644_d1t06.wav
    10:38.21      112592636 B   ---   --   -----    wav  1.0000  ph2012-06-08_mk22_1644_d1t07.wav
     3:57.12       41835068 B   ---   --   -----    wav  1.0000  ph2012-06-08_mk22_1644_d1t08.wav
    10:40.65      113048924 B   ---   --   -----    wav  1.0000  ph2012-06-08_mk22_1644_d1t09.wav
    13:40.73      144819740 B   ---   --   -----    wav  1.0000  ph2012-06-08_mk22_1644_d1t10.wav
     1:42.35       18075164 B   ---   --   -----    wav  1.0000  ph2012-06-08_mk22_1644_d2t01.wav
    14:42.26      155645996 B   ---   --   -----    wav  1.0000  ph2012-06-08_mk22_1644_d2t02.wav
     8:21.61       88519916 B   ---   --   -----    wav  1.0000  ph2012-06-08_mk22_1644_d2t03.wav
     3:24.53       36110300 B   ---   --   -----    wav  1.0000  ph2012-06-08_mk22_1644_d2t04.wav
     7:36.44       80541932 B   ---   --   -----    wav  1.0000  ph2012-06-08_mk22_1644_d2t05.wav
     5:42.42       60427628 B   ---   --   -----    wav  1.0000  ph2012-06-08_mk22_1644_d2t06.wav
     7:11.08       76047260 B   ---   --   -----    wav  1.0000  ph2012-06-08_mk22_1644_d2t07.wav
     7:25.46       78606236 B   ---   --   -----    wav  1.0000  ph2012-06-08_mk22_1644_d2t08.wav
     9:35.39      101521772 B   ---   --   -----    wav  1.0000  ph2012-06-08_mk22_1644_d2t09.wav
    10:38.16      112580876 B   ---   --   -----    wav  1.0000  ph2012-06-08_mk22_1644_d2t10.wav
     1:48.03       19058300 B   ---   --   -----    wav  1.0000  ph2012-06-08_mk22_1644_d2t11.wav
     8:10.35       86518364 B   ---   --   -----    wav  1.0000  ph2012-06-08_mk22_1644_d2t12.wav
   167:37.19     1774100456 B                            1.0000  (22 files)



Show Checksums
16bit-FFP
ph2012-06-08_mk22_1644_d1t01.flac:d0ca06558d6b4643c13f2f5f39ab4017
ph2012-06-08_mk22_1644_d1t02.flac:59927501cca5978c82a02a8a2dbd75ff
ph2012-06-08_mk22_1644_d1t03.flac:38d801e02dedb9b681d2b19f11bb4e1e
ph2012-06-08_mk22_1644_d1t04.flac:78ac43ad073076438aea09f9fb81131f
ph2012-06-08_mk22_1644_d1t05.flac:76debf450a855d14f3a43107885d403f
ph2012-06-08_mk22_1644_d1t06.flac:d3ad7634ace362d26c35c5dc4caea72f
ph2012-06-08_mk22_1644_d1t07.flac:a9fe9984f3d342f67d5cda9735a55462
ph2012-06-08_mk22_1644_d1t08.flac:e8bbd4b54dcafc0a3ff4654dd08ab8b1
ph2012-06-08_mk22_1644_d1t09.flac:dddfc4d0f8482f6eaab5df8b23742cce
ph2012-06-08_mk22_1644_d1t10.flac:b4f3a2886e2a727c57c1120ba90b1089
ph2012-06-08_mk22_1644_d2t01.flac:dcb694a657b525e1d0a6236895857938
ph2012-06-08_mk22_1644_d2t02.flac:47680778df500c971edd5ead129c2898
ph2012-06-08_mk22_1644_d2t03.flac:e535bb308f854eab30d18513b4f33ba2
ph2012-06-08_mk22_1644_d2t04.flac:83e72a9c6a0ad324256df2281e85b142
ph2012-06-08_mk22_1644_d2t05.flac:1ca00e96277b27fc6a462cabf03ff0ef
ph2012-06-08_mk22_1644_d2t06.flac:c522d80e75988ef49dd428dbda237071
ph2012-06-08_mk22_1644_d2t07.flac:2d9b31759d25403810412d106c11fa8b
ph2012-06-08_mk22_1644_d2t08.flac:ffdbca130e12c4782d38b01558476f00
ph2012-06-08_mk22_1644_d2t09.flac:7cff2260825e77e26a28714ec2987a5b
ph2012-06-08_mk22_1644_d2t10.flac:a61380962ab19ceaaa3b64a845512959
ph2012-06-08_mk22_1644_d2t11.flac:8adc2c0274efbba67b10a76382f5ac48
ph2012-06-08_mk22_1644_d2t12.flac:2bac991a297817ca4eb77366c969b6af

Comments
Add Comment
Other Sources (comments)
flac16; Microtech... (0) flac24; Microtech... (0) flac16; Sennheiser... (0) flac16; (FOB)... (0) flac16; DPA 4011 >... (0) flac24; DPA 4011 >... (0) flac16; (FOB) DPA... (0) flac24; (FOB)... (0) flac16; AKG... (0) flac24; (FOB) DPA... (0) flac16; Schoeps... (0) flac24; Senn mke2010... (0) flac16; Senn mke2010... (0)
Date User Comment