Browse Collections Artists Sources   Search Dates

Add Show    List Management    Help


Gov't Mule 06/17/12
Chastain Park Amphitheatre, Atlanta, GA
Comments Add Comment    Source Collectors    Add to Collection    Add to Want List    History
Source # 120827 Other Sources
Entered by Albix
Checksums flac.ffp
Disc Counts 2 / 2
Media Size Compressed: 793.8 MB (832356346 bytes)
Date Circulated
Date Added
06/21/2012
06/21/2012
Source Summary flac16; AKG c414b-ULS (cardioid din dfc fob 8' row 11 seat 1 )>V3 (24/96)>sd722
Transfer: firewire>wavelab 6.10 [Crystal Resampler (downsample) iZotope Ozone 4
(dither)]>CDWav (splits)>FLACFrontend>foobar2000 (tagging)
Taped and transferred by John Barren
A Team Dirty South Recording 
Source Information - Download Text | Download Zip
Gov't Mule
2012-06-17
Chastain Music Park, Atlanta, Ga.

Source: AKG c414b-ULS (cardioid din dfc fob 8' row 11 seat 1 )>V3 (24/96)>sd722
Transfer: firewire>wavelab 6.10 [Crystal Resampler (downsample) iZotope Ozone 4 (dither)]>CDWav (splits)>FLACFrontend>foobar2000 (tagging)
taped and transferred by John Barren
A Team Dirty South Recording

Set 1
01. Hammer and Nails
02. Patchwork Quilt
03. I Believe to My Soul
04. Time to Confess
05. Kind of Bird
06. The Weight*
07. Got My Mojo Working*
08. Railroad Boy>
09. Beautifully Broken
10. Lay Your Burden Down> Smokestack Lightening> Lay Your Burden Down
11. Endless Parade
12. How Many More Years> Higher Ground> How Many More Years
13. Soulshine
14. crowd & intros
encore
15. John the Revelator^
16. 32/20 Blues^>
17. Spanish Moon^

*w/ Dr. John & horns
^ w/ Dr. John's band minus Dr. John and bass player

I'm going to quote Adam's disclaimer as he pretty well hit it on the head:

"(This venue is in the middle of a high dollar neighborhood. Due to noise laws, they had to keep the db's very low. The music was ok, but the vocals sounded like they were hollow and far away...I did the best I could with this. To me it sounds WAY better that it did to my ears during the show. Needless to say, this is my last trip to Chastain AMP!!)"

Shntool
length expanded size cdr WAVE problems fmt ratio filename
7:10.32 75927308 B --- -- ---xx flac 0.4967 gm2012-06-17t01.flac
5:25.08 57348860 B --- -- ---xx flac 0.5349 gm2012-06-17t02.flac
5:28.07 57875708 B --- -- ---xx flac 0.5349 gm2012-06-17t03.flac
9:27.60 100159964 B --- -- ---xx flac 0.5336 gm2012-06-17t04.flac
16:17.01 172345196 B --- -- ---xx flac 0.5272 gm2012-06-17t05.flac
7:03.44 74720732 B --- -- ---xx flac 0.5228 gm2012-06-17t06.flac
9:37.68 101942780 B --- -- ---xx flac 0.5358 gm2012-06-17t07.flac
5:04.70 53790284 B --- -- ---xx flac 0.5291 gm2012-06-17t08.flac
9:24.14 99522572 B --- -- ---xx flac 0.5289 gm2012-06-17t09.flac
15:09.49 160462892 B --- -- ---xx flac 0.5188 gm2012-06-17t10.flac
9:30.41 100644476 B --- -- ---xx flac 0.4849 gm2012-06-17t11.flac
8:06.47 85840988 B --- -- ---xx flac 0.5262 gm2012-06-17t12.flac
8:03.55 85330604 B --- -- ---xx flac 0.5468 gm2012-06-17t13.flac
4:10.40 44194124 B --- -- ---xx flac 0.4811 gm2012-06-17t14.flac
8:46.02 92791148 B --- -- ---xx flac 0.5103 gm2012-06-17t15.flac
9:52.22 104480588 B --- -- ---xx flac 0.5732 gm2012-06-17t16.flac
10:53.19 115233932 B --- -- ---xx flac 0.5341 gm2012-06-17t17.flac
149:31.54 1582612156 B 0.5259 (17 files)


Show Checksums
flac.ffp
gm2012-06-17t01.flac:0f85f4d850af3eedcc65f17d67892ea3
gm2012-06-17t02.flac:a982ca0e42ffc368d2701c0fb94a5587
gm2012-06-17t03.flac:cedf8ac5c4baadfc1e0e2d73f9207ec3
gm2012-06-17t04.flac:736e593cac1e62f0f9c7b1665741d13a
gm2012-06-17t05.flac:a5e6d7b05ce31012151069c4526f393a
gm2012-06-17t06.flac:dedefc0ec61e1b38bfbfc201fa3c0acc
gm2012-06-17t07.flac:3496411c34c1a1ff3072c9859a00142f
gm2012-06-17t08.flac:b2ad07359f9e8145bbb089706b8a001d
gm2012-06-17t09.flac:e980fba07464a12240520a1e1bfbf360
gm2012-06-17t10.flac:2158f9086d1b242081790adafb769e61
gm2012-06-17t11.flac:ae7544506cfed38b83d3757930ff2f6c
gm2012-06-17t12.flac:482fd08f72a3f0ba115f01cc3e11ea8c
gm2012-06-17t13.flac:75a45406edc4c17dda6e81fdaa484220
gm2012-06-17t14.flac:b07f4c2e12ea222611c702aee5ff4790
gm2012-06-17t15.flac:fc478767e9b0950ee9d0553da5e3df97
gm2012-06-17t16.flac:b448531371f41325d8f2408ce99bc4ba
gm2012-06-17t17.flac:f05380c8a7b508aacfa3080467e6cd93

Comments
Add Comment
Other Sources (comments)
flac16; schoeps mk5... (0)
Date User Comment