Browse Collections Artists Sources   Search Dates

Add Show    List Management    Help


Grateful Dead 10/31/80
Radio City Music Hall, New York, NY
Comments Add Comment    Source Collectors    Add to Collection    Add to Want List    History
Source # 120839 Other Sources
Entered by Matt Vernon
Checksums ffp , flac-md5
Disc Counts 0 / 0
Media Size Compressed: 1.25 GB (1339323660 bytes)
Uncompressed: 1.94 GB (2079049456 bytes)
Date Circulated
Date Added
06/22/2012
06/22/2012
Source Summary flac16; Loge Dead front center Nak 700 > sony D-5> AMC> DAT> CDR> EAC> TLH> Flac; Recorded by Keith Gatto & Pete Jaeger; Extracted & flac encoded by Michael Turi; Patched and Edited in Sound Forge Pro. 10.0; Tracked in Audacity 2.0 by dusborne 06-20-2012 
  Archive
Source Information - Download Text | Download Zip
Grateful Dead
October 31, 1980
Radio City Music Hall
New York, NY

--------------------------------------------------------------------------------
Loge
Dead front center

Nak 700 > sony D-5> AMC> DAT> CDR> EAC> TLH> Flac
Recorded by Keith Gatto & Pete Jaeger

Extracted & flac encoded by Michael Turi

Patched and Edited in Sound Forge Pro. 10.0
Tracked in Audacity 2.0 by dusborne
06-20-2012

--------------------------------------------------------------------------------

---Thank You Keith Gatto and Pete Jaeger for recording the show.
---Thank You Michael Turi For extracting the files from your personal cd's.
---Thanks to germain for everything;seeding,encouragement,advice and tutelage.

--------------------------------------------------------------------------------

Set 1:
d1t01 - Tuning
d1t02 - Heaven Help The Fool
d1t03 - Sage And Spirit
d1t04 - Little Sadie
d1t05 - Monkey And The Engineer
d1t06 - It Must Have Been The Roses
d1t07 - Cassidy
d1t08 - Bird Song ->
d1t09 - Ripple

Set 2:
d1t10 - Tuning
d1t11 - Jack Straw
d1t12 - Cold Rain And Snow
d1t13 - Me And My Uncle ->
d1t14 - Mexicali Blues
d2t01 - Ramble On Rose ->
d2t02 - Little Red Rooster
d2t03 - Brown Eyed Women ->
d2t04 - Looks Like Rain ->
d2t05 - Deal

Set 3:
d2t06 - Tuning
d2t07 - Don't Ease Me In ->
d2t08 - Lost Sailor ->
d2t09 - Saint Of Circumstance ->
d2t10 - Franklin's Tower ->
d2t11 - Drums ->
d3t01 - Space ->
d3t02 - Fire On The Mountain ->
d3t03 - Not Fade Away ->
d3t04 - Stella Blue ->
d3t05 - Goin' Down The Road Feeling Bad ->
d3t06 - Good Lovin'

Encore:
d3t07 - Uncle John's Band

---------------------------------------------------------------------------------------

Notes

---This source ran fast, I pitch corrected by -0.3%
---There are no patches, the entire show was recorded.
---Smoothed cuts with fades
---many mic bumps smoothed out as best as could be done without hurting music
---241 cuts fixed during Drums!

----------------------------------------------------------------------------------------

Tagging notes:
Show information is embedded within the header of each flac file.
It will display on any player capable of directly playing flac
files. If converted to wav during processing, all tags will be
stripped, however audio data will remain unaffected. If you must
transcode to a lossy format, do so directly Flac > Lossy.
Use ffp to validate audio integrity.
Md5 values will change if tagging is altered.

dusborne 06-20-2012

--------------------------------------------------------------------------------------

length     expanded size    cdr  WAVE problems  fmt   ratio  filename
     3:09.41       33436076 B   ---   --   ---xx   flac  0.5917  gd80-10-31d1t01.flac
     7:59.63       84643820 B   ---   --   ---xx   flac  0.6305  gd80-10-31d1t02.flac
     2:50.60       30129164 B   ---   --   ---xx   flac  0.5900  gd80-10-31d1t03.flac
     3:23.14       35842172 B   ---   --   ---xx   flac  0.6335  gd80-10-31d1t04.flac
     3:20.11       35305916 B   ---   --   ---xx   flac  0.6647  gd80-10-31d1t05.flac
     7:22.71       78135836 B   ---   --   ---xx   flac  0.6361  gd80-10-31d1t06.flac
     5:45.63       61006220 B   ---   --   ---xx   flac  0.6915  gd80-10-31d1t07.flac
     9:28.21      100244636 B   ---   --   ---xx   flac  0.6615  gd80-10-31d1t08.flac
     4:23.01       46395596 B   ---   --   ---xx   flac  0.6579  gd80-10-31d1t09.flac
     0:52.17        9212828 B   ---   --   ---xx   flac  0.6047  gd80-10-31d1t10.flac
     6:11.11       65470316 B   ---   --   ---xx   flac  0.6599  gd80-10-31d1t11.flac
     6:39.06       70397756 B   ---   --   ---xx   flac  0.6351  gd80-10-31d1t12.flac
     2:59.02       31580348 B   ---   --   ---xx   flac  0.6469  gd80-10-31d1t13.flac
     4:25.47       46856588 B   ---   --   ---xx   flac  0.6527  gd80-10-31d1t14.flac
     7:46.18       82244780 B   ---   --   ---xx   flac  0.6407  gd80-10-31d2t01.flac
    10:39.16      112757276 B   ---   --   ---xx   flac  0.6463  gd80-10-31d2t02.flac
     5:15.02       55570748 B   ---   --   ---xx   flac  0.6613  gd80-10-31d2t03.flac
     6:53.03       72860300 B   ---   --   ---xx   flac  0.6369  gd80-10-31d2t04.flac
     6:25.45       68019884 B   ---   --   ---xx   flac  0.6887  gd80-10-31d2t05.flac
     0:16.33        2900060 B   ---   --   ---xx   flac  0.5602  gd80-10-31d2t06.flac
     3:36.45       38208284 B   ---   --   ---xx   flac  0.6478  gd80-10-31d2t07.flac
     6:06.53       64687100 B   ---   --   ---xx   flac  0.6190  gd80-10-31d2t08.flac
     6:33.26       69386396 B   ---   --   ---xx   flac  0.6592  gd80-10-31d2t09.flac
     8:58.19       94947932 B   ---   --   ---xx   flac  0.6454  gd80-10-31d2t10.flac
    11:43.09      124030412 B   ---   --   ---xx   flac  0.5813  gd80-10-31d2t11.flac
     4:35.27       48573548 B   ---   --   ---xx   flac  0.5756  gd80-10-31d3t01.flac
     9:57.70      105475484 B   ---   --   ---xx   flac  0.6707  gd80-10-31d3t02.flac
     6:26.03       68097500 B   ---   --   ---xx   flac  0.6770  gd80-10-31d3t03.flac
     9:49.30      103970204 B   ---   --   ---xx   flac  0.6096  gd80-10-31d3t04.flac
     6:16.68       66486380 B   ---   --   ---xx   flac  0.6816  gd80-10-31d3t05.flac
     7:31.59       79695212 B   ---   --   ---xx   flac  0.6790  gd80-10-31d3t06.flac
     8:44.20       92480684 B   ---   --   ---xx   flac  0.6525  gd80-10-31d3t07.flac
   196:25.74     2079049456 B                            0.6442  (32 files)


Show Checksums
ffp
gd80-10-31d1t01.flac:25e27cf2053c883f0de8a4381771abd8
gd80-10-31d1t02.flac:ee35589a34795c946a6e2e1a5c712b6f
gd80-10-31d1t03.flac:7bd72659860067fa60fdaed041376395
gd80-10-31d1t04.flac:2eb0ea5627a298e21d304d0bace91f4c
gd80-10-31d1t05.flac:1d052bc54897dc08d82ed07e94aa1c9b
gd80-10-31d1t06.flac:d5be2551ef09a0bfa0d7a577446a4b47
gd80-10-31d1t07.flac:aa6497268005ee6da64daa5f70a38e1a
gd80-10-31d1t08.flac:59f5ceeb5cf829dfa014f69b6c38c4eb
gd80-10-31d1t09.flac:76aea00c13e05b47c33e3ace47894f08
gd80-10-31d1t10.flac:ca962bcc8d6b0b00b5b1878348c84356
gd80-10-31d1t11.flac:4fbdddd7e374a861009a3fde34f60788
gd80-10-31d1t12.flac:cc6ed82b7d91b468dccdc9f81a3a3df9
gd80-10-31d1t13.flac:930dc881270d2072187bce52c221d0ac
gd80-10-31d1t14.flac:b2c29d7b19c558b83d21918f80159a55
gd80-10-31d2t01.flac:7c7fbdf256e2246f8d4c3b30ae383241
gd80-10-31d2t02.flac:9304e4cb48c0af860c445b67f77a2874
gd80-10-31d2t03.flac:f9533f7632292b3ba9dab91b74d35404
gd80-10-31d2t04.flac:14e5e8d799c21fc1f37882beff7bccd3
gd80-10-31d2t05.flac:b470849dbbd9ef4b51b9f23cea007574
gd80-10-31d2t06.flac:cacf553370d50d1a24f61a1a1c3504a1
gd80-10-31d2t07.flac:cff2cfccfeeb4643e0312446aa3504d5
gd80-10-31d2t08.flac:78fd8bfb72b85e4aa1b88d5f0536186f
gd80-10-31d2t09.flac:dc0f6f5bfe7597933f3ee921f45191fd
gd80-10-31d2t10.flac:9d8a7ee9d18dd0c57a5033cd88b80dd7
gd80-10-31d2t11.flac:06afce1461a27dc58ecbfeb9dd1fd8b0
gd80-10-31d3t01.flac:fda72012cec6d8e7919234bd34c19f5a
gd80-10-31d3t02.flac:d4435c3aa47618149d22a27f43789297
gd80-10-31d3t03.flac:d6f94b8ddf8c7b1e4665e60db0b5a16b
gd80-10-31d3t04.flac:98dc8a2e470dc5ed5ac2145719598818
gd80-10-31d3t05.flac:3f4ad738e0e4690e1ce8d9ad7bdd84eb
gd80-10-31d3t06.flac:8f9b89efcdec22d5fc896735a729e913
gd80-10-31d3t07.flac:aa55f634d679af6ecd420b190f8b2537
flac-md5
a1f812d3eb260c10266b67e95690ff06 *gd80-10-31d1t01.flac
9e51cc52f2e91a1d42dbd4c1f7029fc0 *gd80-10-31d1t02.flac
ec95f062b1da607ac11374f8d736722b *gd80-10-31d1t03.flac
d0a51218acc097a671d03bdc3907ad20 *gd80-10-31d1t04.flac
4685a9c5989fa926a8c33984f78a1138 *gd80-10-31d1t05.flac
5d2fbf768d0d8386d5aa2e196a20348b *gd80-10-31d1t06.flac
e0f69cc4690bb294ed83a37a13dc295f *gd80-10-31d1t07.flac
393a37936160f9c3323a418a5f97e318 *gd80-10-31d1t08.flac
3040b342d6f5d1a74ad596fc8523f0f5 *gd80-10-31d1t09.flac
61fd884d28d9ba6632c307ad6520340b *gd80-10-31d1t10.flac
4ec974179eb29966629c156e1be0fb49 *gd80-10-31d1t11.flac
f487d01af652dbe7944aea830c08befb *gd80-10-31d1t12.flac
9928a8d5b8567b583e8f02b387049f40 *gd80-10-31d1t13.flac
b2992494c87d108ed6bc7e15a0b46248 *gd80-10-31d1t14.flac
b3c0294fa79710e834fb187bd08aa1ca *gd80-10-31d2t01.flac
58b0d43e845837665b85959187f44c12 *gd80-10-31d2t02.flac
bde943e40e7e32f58d7f127e90ff0f6b *gd80-10-31d2t03.flac
23baa0ede2e55f52104f66d15aebf5b6 *gd80-10-31d2t04.flac
3e2ead72d16aac450171576d551d099b *gd80-10-31d2t05.flac
728be3b86de2356fb82c17fb9d9b81de *gd80-10-31d2t06.flac
c47d58acf13073313859bd9ea3032105 *gd80-10-31d2t07.flac
f681d819da552e306588ff95663c1082 *gd80-10-31d2t08.flac
8d44ee76dd2232534f346cbbfba30696 *gd80-10-31d2t09.flac
82aace6b04bc622d88e34a4e83e6648b *gd80-10-31d2t10.flac
38a89dd09cc8eb60af9ff78f9ef1763a *gd80-10-31d2t11.flac
70069333123dc318e6b68dae3a04fb70 *gd80-10-31d3t01.flac
a63f3c15b940d8a11478494af84f2da9 *gd80-10-31d3t02.flac
168ef301d836229165ffa4cefb5d4ef0 *gd80-10-31d3t03.flac
bef0734e3aa896c31a86b8e3aafa6225 *gd80-10-31d3t04.flac
6d2484b74cf40c35effb7f2229f7e619 *gd80-10-31d3t05.flac
ca9ff7c9f8199dec1ebe2dec1119bf24 *gd80-10-31d3t06.flac
ff9dc76c6129c75602e5df4a59624f4d *gd80-10-31d3t07.flac

Comments
Add Comment
Other Sources (comments)
Recording by Jim Wise:... (2) Source: Acoustic:... (4) flac16; Acoustic:... (1) flac16; Recording... (0) flac16; Recording... (0) flac16; 3 Source... (0) flac24; Partial... (0) flac16/48kHz;... (0) flac24; Cassette... (0) flac24; Updated... (3) flac16; Updated... (3) flac16; Source:... (0) flac24; Source:... (0) flac16; Source:... (0) flac16; Source Info:... (0)
Date User Comment