Browse Collections Artists Sources   Search Dates

Add Show    List Management    Help


Phish 07/03/12
Nikon at Jones Beach Theater, Wantagh, NY
Comments Add Comment    Source Collectors    Add to Collection    Add to Want List    History
Source # 121068 Other Sources
Entered by Jason Sobel
Checksums 16bit-FFP
Disc Counts 0 / 0
Media Size Compressed: 926.97 MB (971997975 bytes)
Date Circulated
Date Added
07/04/2012
07/04/2012
Source Summary flac16; Schoeps MK41 > KC5 > CMC6 > Sonosax SX-R4 (24bit / 96khz); WAV > USB > Macbook Pro > Wave Editor (tracking, fades, resample/dither to 16 bit / 44.1k) > XAct > FLAC (Level 8); Taped & Transferred by Andy Murray 
Source Information - Download Text | Download Zip
Phish
2012-07-03
Nikon at Jones Beach Theatre
Wantagh, NH

Recorded and transferred by Andy Murray

Mics were right of center from tapers section

Schoeps MK41>KC5>CMC6>Sonosax SX-R4(24bit/96khz)

WAV>USB>Macbook Pro>Wave Editor(tracking,fades,resample(izotope)/dither(mbit+)to 16 bit/44.1k)>XAct(FLAC 8,ffp,fix sbe)

2 Sets

Set 1:

01 Intro
02 Skin It Back
03 Possum[1]
04 Tube
05 Happiness Is a Warm Gun
06 Mike's Song >
07 I Am Hydrogen >
08 Weekapaug Groove
09 Halley's Comet >
10 Axilla >
11 Ya Mar
12 Joy
13 Jesus Just Left Chicago
14 Backwards Down the Number Line >
15 Golgi Apparatus

Set 2:

01 Intro
02 Chalk Dust Torture[1]
03 Sand[2] >
04 Golden Age
05 Wolfman's Brother >
06 Walk Away
07 Bug >
08 Fluffhead[3] >
09 The Wedge
10 Run Like an Antelope

Encore:
11 Character Zero

[1] Skin It Back tease.
[2] Izabella tease.
[3] Dave's Energy Guide tease.

Notes: Skin It Back was played for the first time since July 29,1988 (1,417 shows). Happiness is a Warm Gun was played for the first time since October 31, 1994 (658 shows). Possum and Chalk Dust Torture contained Skin It Back teases. Sand contained an Izabella tease. Fluffhead contained a Dave's Energy Guide tease.

;flac fingerprints generated by xACT 2.18 on 2012-07-04 11:45:59 -0400

ph2012-07-03_mk41_1644_d1t01.flac:f12f8a9193e011193b21488dcfe9699c
ph2012-07-03_mk41_1644_d1t02.flac:219669d9d5cde92b001cc7f5d76ee02f
ph2012-07-03_mk41_1644_d1t03.flac:ab1e7e6459108b5524305b3a24b29e32
ph2012-07-03_mk41_1644_d1t04.flac:b8dc048fff565180ea90f8ab47721beb
ph2012-07-03_mk41_1644_d1t05.flac:1e716ee8f42c48f78b1aa1e0852c3558
ph2012-07-03_mk41_1644_d1t06.flac:f40ffa8d79077b7a2213440ff3954a4e
ph2012-07-03_mk41_1644_d1t07.flac:e15f7bddd396bf3a04da6a5c114cd674
ph2012-07-03_mk41_1644_d1t08.flac:fd171d0b60d8b16e6045ac4ed181a06c
ph2012-07-03_mk41_1644_d1t09.flac:36e0574eeced0f609c61e9ecffecb0a2
ph2012-07-03_mk41_1644_d1t10.flac:ce7b44467a97908a18d647ae5d43402c
ph2012-07-03_mk41_1644_d1t11.flac:4c25bcf2e7c6d9067d6374ae495b5e0d
ph2012-07-03_mk41_1644_d1t12.flac:d339776dfdc81f3a79882e369054b7e9
ph2012-07-03_mk41_1644_d1t13.flac:e86e7a8e22cf7be97d9f56e526336fab
ph2012-07-03_mk41_1644_d1t14.flac:78c1f5ae478083fa47749992decbc285
ph2012-07-03_mk41_1644_d1t15.flac:7b9990987fe7d7cbc2002ac6930b8a14
ph2012-07-03_mk41_1644_d2t01.flac:dd626140e477c2ac25e0709270e709a0
ph2012-07-03_mk41_1644_d2t02.flac:f76734d7651c5f60f1e430c5a63864da
ph2012-07-03_mk41_1644_d2t03.flac:66376bb38e872b76adf30bc2de3bebcd
ph2012-07-03_mk41_1644_d2t04.flac:51ab2e876388bfa961d1047bd3d58a2c
ph2012-07-03_mk41_1644_d2t05.flac:a5e3330b776e635f1c2c2243ffa7882f
ph2012-07-03_mk41_1644_d2t06.flac:84a291b5b8e27fe60c830e9230c87521
ph2012-07-03_mk41_1644_d2t07.flac:3b4269b8fc53d1f613230e6c38a0675e
ph2012-07-03_mk41_1644_d2t08.flac:370e78ecc62ecc896f0859ed008a3c36
ph2012-07-03_mk41_1644_d2t09.flac:952714e738725d63859144b3aa300cbc
ph2012-07-03_mk41_1644_d2t10.flac:4e841b2b895279423eb2ba784a97ce83
ph2012-07-03_mk41_1644_d2t11.flac:990b04c3439b058209f56086745bbd3f

    length     expanded size    cdr  WAVE problems  fmt   ratio  filename
     1:18.74       13933292 B   ---   --   -----    wav  1.0000  ph2012-07-03_mk41_1644_d1t01.wav
     8:48.15       93174524 B   ---   --   -----    wav  1.0000  ph2012-07-03_mk41_1644_d1t02.wav
     7:37.43       80715980 B   ---   --   -----    wav  1.0000  ph2012-07-03_mk41_1644_d1t03.wav
     4:21.04       46049852 B   ---   --   -----    wav  1.0000  ph2012-07-03_mk41_1644_d1t04.wav
     2:58.13       31429820 B   ---   --   -----    wav  1.0000  ph2012-07-03_mk41_1644_d1t05.wav
     7:34.46       80193836 B   ---   --   -----    wav  1.0000  ph2012-07-03_mk41_1644_d1t06.wav
     2:41.32       28475708 B   ---   --   -----    wav  1.0000  ph2012-07-03_mk41_1644_d1t07.wav
     6:42.26       70973996 B   ---   --   -----    wav  1.0000  ph2012-07-03_mk41_1644_d1t08.wav
     5:33.38       58830620 B   ---   --   -----    wav  1.0000  ph2012-07-03_mk41_1644_d1t09.wav
     3:20.56       35411756 B   ---   --   -----    wav  1.0000  ph2012-07-03_mk41_1644_d1t10.wav
     6:59.40       74005724 B   ---   --   -----    wav  1.0000  ph2012-07-03_mk41_1644_d1t11.wav
     6:02.47       63967388 B   ---   --   -----    wav  1.0000  ph2012-07-03_mk41_1644_d1t12.wav
     7:51.58       83220860 B   ---   --   -----    wav  1.0000  ph2012-07-03_mk41_1644_d1t13.wav
     7:00.67       74245628 B   ---   --   -----    wav  1.0000  ph2012-07-03_mk41_1644_d1t14.wav
     5:15.38       55655420 B   ---   --   -----    wav  1.0000  ph2012-07-03_mk41_1644_d1t15.wav
     0:55.74        9876092 B   ---   --   -----    wav  1.0000  ph2012-07-03_mk41_1644_d2t01.wav
     7:19.60       77580764 B   ---   --   -----    wav  1.0000  ph2012-07-03_mk41_1644_d2t02.wav
    10:42.42      113347628 B   ---   --   -----    wav  1.0000  ph2012-07-03_mk41_1644_d2t03.wav
    13:46.47      145816988 B   ---   --   -----    wav  1.0000  ph2012-07-03_mk41_1644_d2t04.wav
     6:23.40       67655324 B   ---   --   -----    wav  1.0000  ph2012-07-03_mk41_1644_d2t05.wav
     9:45.49      103309292 B   ---   --   -----    wav  1.0000  ph2012-07-03_mk41_1644_d2t06.wav
     7:07.34       75402812 B   ---   --   -----    wav  1.0000  ph2012-07-03_mk41_1644_d2t07.wav
    14:29.73      153463340 B   ---   --   -----    wav  1.0000  ph2012-07-03_mk41_1644_d2t08.wav
     5:55.32       62697308 B   ---   --   -----    wav  1.0000  ph2012-07-03_mk41_1644_d2t09.wav
    14:09.23      149817740 B   ---   --   -----    wav  1.0000  ph2012-07-03_mk41_1644_d2t10.wav
     6:42.65       71065724 B   ---   --   -----    wav  1.0000  ph2012-07-03_mk41_1644_d2t11.wav
   181:26.11     1920317416 B                            1.0000  (26 files)


Show Checksums
16bit-FFP
ph2012-07-03_mk41_1644_d1t01.flac:f12f8a9193e011193b21488dcfe9699c
ph2012-07-03_mk41_1644_d1t02.flac:219669d9d5cde92b001cc7f5d76ee02f
ph2012-07-03_mk41_1644_d1t03.flac:ab1e7e6459108b5524305b3a24b29e32
ph2012-07-03_mk41_1644_d1t04.flac:b8dc048fff565180ea90f8ab47721beb
ph2012-07-03_mk41_1644_d1t05.flac:1e716ee8f42c48f78b1aa1e0852c3558
ph2012-07-03_mk41_1644_d1t06.flac:f40ffa8d79077b7a2213440ff3954a4e
ph2012-07-03_mk41_1644_d1t07.flac:e15f7bddd396bf3a04da6a5c114cd674
ph2012-07-03_mk41_1644_d1t08.flac:fd171d0b60d8b16e6045ac4ed181a06c
ph2012-07-03_mk41_1644_d1t09.flac:36e0574eeced0f609c61e9ecffecb0a2
ph2012-07-03_mk41_1644_d1t10.flac:ce7b44467a97908a18d647ae5d43402c
ph2012-07-03_mk41_1644_d1t11.flac:4c25bcf2e7c6d9067d6374ae495b5e0d
ph2012-07-03_mk41_1644_d1t12.flac:d339776dfdc81f3a79882e369054b7e9
ph2012-07-03_mk41_1644_d1t13.flac:e86e7a8e22cf7be97d9f56e526336fab
ph2012-07-03_mk41_1644_d1t14.flac:78c1f5ae478083fa47749992decbc285
ph2012-07-03_mk41_1644_d1t15.flac:7b9990987fe7d7cbc2002ac6930b8a14
ph2012-07-03_mk41_1644_d2t01.flac:dd626140e477c2ac25e0709270e709a0
ph2012-07-03_mk41_1644_d2t02.flac:f76734d7651c5f60f1e430c5a63864da
ph2012-07-03_mk41_1644_d2t03.flac:66376bb38e872b76adf30bc2de3bebcd
ph2012-07-03_mk41_1644_d2t04.flac:51ab2e876388bfa961d1047bd3d58a2c
ph2012-07-03_mk41_1644_d2t05.flac:a5e3330b776e635f1c2c2243ffa7882f
ph2012-07-03_mk41_1644_d2t06.flac:84a291b5b8e27fe60c830e9230c87521
ph2012-07-03_mk41_1644_d2t07.flac:3b4269b8fc53d1f613230e6c38a0675e
ph2012-07-03_mk41_1644_d2t08.flac:370e78ecc62ecc896f0859ed008a3c36
ph2012-07-03_mk41_1644_d2t09.flac:952714e738725d63859144b3aa300cbc
ph2012-07-03_mk41_1644_d2t10.flac:4e841b2b895279423eb2ba784a97ce83
ph2012-07-03_mk41_1644_d2t11.flac:990b04c3439b058209f56086745bbd3f

Comments
Add Comment
Other Sources (comments)
flac16; Sennheiser... (0) flac24; Schoeps MK41... (0) flac16; Schoeps mk22... (0) flac24; Schoeps mk22... (0) flac16; Neumann... (0)
Date User Comment