Browse Collections Artists Sources   Search Dates

Add Show    List Management    Help


Phish 07/04/12
Nikon at Jones Beach Theater, Wantagh, NY
Comments Add Comment    Source Collectors    Add to Collection    Add to Want List    History
Source # 121080 Other Sources
Entered by Jason Sobel
Checksums 16bit-FFP
Disc Counts 0 / 0
Media Size Compressed: 817.29 MB (856989632 bytes)
Date Circulated
Date Added
07/05/2012
07/05/2012
Source Summary flac16; Schoeps CCM4V'S > Lunatec V2 > Benchmark AD2K > Sound Devices 722 (24/48); Sound Devices 722 > Sound Forge 9.0 > CD Wave > flac(16); Taped & Transferred by Z-Man 
Source Information - Download Text | Download Zip
Phish
Nikon At Jones Beach Theatre
Wantagh, New York
7/4/2012

Source: Schoeps CCM4V'S(din)>Lunatec V2>Benchmark AD2K>
Sound Devices 722 (24/48)
OTS/BOB/DFC/KFC/ZFC/AARP Center Section , Row 3, Seat 9, 6' High
DSP: Sound Devices 722>Sound Forge 9.0>CD Wave>flac(16)
Recorded By: Z-Man
Seeded By: Z-Man

Disc I 1st Set

01 Alumni Blues
02 Head Held High
03 The Man Who Stepped Into Yesterday >
04 Avenu Malkenu >
05 The Man Who Stepped Into Yesterday
06 Kill Devil Falls
07 Bittersweet Motel
08 The Moma Dance >
09 Gumbo >
10 David Bowie
11 Alaska >
12 Susskind Hotel

Disc II 1st Set Con't

01 Hold Your Head Up
02 John Fishman Banter
03 Purple Rain >
04 Hold your Head Up
05 Star Spangled Banner
2nd Set:
06 Tuning
07 Boogie On Raggae Woman >
08 Tweezer >
09 Twist >
10 Taste >
11 Quinn The Eskimo >
12 Julius >
13 Rock And Roll >

Disc III 2nd Set Con't

01 The Horse >
02 Silent In The Morning >
03 Harry Hood >
04 Shine A Light >
05 Show Of Life >
06 Slave To TRhe Traffic Light
Encore:
07 Sleeping Monkey >
08 Tweezer Reprise

Flac Fingerprint

phish2012-07-04d01t01.flac:8cbadb357ffedf82acec7e1212df48c0
phish2012-07-04d01t02.flac:9436fe7f4e3e157684a4c2a04ee52f6e
phish2012-07-04d01t03.flac:8d1cd980259b5a464828621b962d308c
phish2012-07-04d01t04.flac:d5bc8eb4ef330358a71d1d8ef5c45604
phish2012-07-04d01t05.flac:a54cbde15c5fb56afc418d41fa41ecac
phish2012-07-04d01t06.flac:62b7e68368e179bb965883e6684bb4b6
phish2012-07-04d01t07.flac:5ff434c31330274af4db84a32c4f0679
phish2012-07-04d01t08.flac:f743d7eef901c02a23a8d71067341c57
phish2012-07-04d01t09.flac:a8be10ac6007f8cd41be030d1e06e277
phish2012-07-04d01t10.flac:28711e1ebedb6f39a3711eebe238e835
phish2012-07-04d01t11.flac:50d4158030c4c12590b8ec11250b1571
phish2012-07-04d01t12.flac:33c01a9a6ac3b7e964e2166a015919d4
phish2012-07-04d02t01.flac:bddbe3aa387afe8396386556f2870946
phish2012-07-04d02t02.flac:60008175cdb26083fa8d58b63dbe4d64
phish2012-07-04d02t03.flac:60dceb0eaa3c796fa27cca848a1cb55c
phish2012-07-04d02t04.flac:08d8743420fc7787291afba8539b9977
phish2012-07-04d02t05.flac:132edcd2d6cd6f40d2ffa2068ec69dcc
phish2012-07-04d02t06.flac:4e3c864edf3a13fc70df14c5d70b4b85
phish2012-07-04d02t07.flac:42594c889dc9fbcf56cbe02a57661084
phish2012-07-04d02t08.flac:e9ffe0bb065d34ef78afd6b4192cabfb
phish2012-07-04d02t09.flac:d44b7d41878b8bd2ea79fb758d8837a4
phish2012-07-04d02t10.flac:c3cd29b198e9bb9fb39b7803c6ad8187
phish2012-07-04d02t11.flac:15cdad8b910ddfbc9791dc6f604700cc
phish2012-07-04d02t12.flac:1d7f5073eda447f3e469402a731bbdb2
phish2012-07-04d02t13.flac:f0e0c8a495a046e6e295c61b6493b557
phish2012-07-04d03t01.flac:ae7e1e4be99b30673bf879a544a70a88
phish2012-07-04d03t02.flac:33df4f4c5d7f5248299d99ab756d42b7
phish2012-07-04d03t03.flac:14e74f7303e4af7346a9fbe315d261d3
phish2012-07-04d03t04.flac:614f0cac12c0e9c1545b1c78d839cf80
phish2012-07-04d03t05.flac:75ce932e6f3c496256b02983867cea47
phish2012-07-04d03t06.flac:57416b4c52dc594a2789ac64f9977ed0
phish2012-07-04d03t07.flac:51f161205aab79b371d83ae8a94b2222
phish2012-07-04d03t08.flac:aaf1dcaf4d7299c1d06e11370e8365f3

Shntool

    length     expanded size    cdr  WAVE problems  fmt   ratio  filename
     7:28.61       79170716 B   ---   --   ---xx   flac  0.4484  phish2012-07-04d01t01.flac
     5:53.50       62386844 B   ---   --   ---xx   flac  0.4748  phish2012-07-04d01t02.flac
     3:35.58       38062460 B   ---   --   ---xx   flac  0.3647  phish2012-07-04d01t03.flac
     3:18.04       34936652 B   ---   --   ---xx   flac  0.4579  phish2012-07-04d01t04.flac
     1:46.42       18797228 B   ---   --   ---xx   flac  0.3790  phish2012-07-04d01t05.flac
     8:44.73       92605340 B   ---   --   ---xx   flac  0.4637  phish2012-07-04d01t06.flac
     3:13.30       34115804 B   ---   --   ---xx   flac  0.4129  phish2012-07-04d01t07.flac
     7:53.33       83514860 B   ---   --   ---xx   flac  0.4673  phish2012-07-04d01t08.flac
     4:19.35       45769964 B   ---   --   ---xx   flac  0.4361  phish2012-07-04d01t09.flac
    11:12.22      118592588 B   ---   --   ---xx   flac  0.4379  phish2012-07-04d01t10.flac
     8:51.09       93689612 B   ---   --   ---xx   flac  0.4619  phish2012-07-04d01t11.flac
     6:48.16       72008876 B   ---   --   ---xx   flac  0.4630  phish2012-07-04d01t12.flac
     1:20.74       14286092 B   ---   --   ---xx   flac  0.3849  phish2012-07-04d02t01.flac
     0:38.47        6813788 B   ---   --   ---xx   flac  0.3665  phish2012-07-04d02t02.flac
     5:22.22       56852588 B   ---   --   ---xx   flac  0.4476  phish2012-07-04d02t03.flac
     2:20.63       24844220 B   ---   --   ---xx   flac  0.4258  phish2012-07-04d02t04.flac
     2:16.04       23999852 B   ---   --   ---xx   flac  0.4020  phish2012-07-04d02t05.flac
     0:27.73        4934540 B   ---   --   ---xx   flac  0.2680  phish2012-07-04d02t06.flac
     5:49.22       61615388 B   ---   --   ---xx   flac  0.4324  phish2012-07-04d02t07.flac
    11:14.41      118990076 B   ---   --   ---xx   flac  0.4632  phish2012-07-04d02t08.flac
     7:45.43       82127180 B   ---   --   ---xx   flac  0.4069  phish2012-07-04d02t09.flac
     7:42.54       81623852 B   ---   --   ---xx   flac  0.4247  phish2012-07-04d02t10.flac
     4:54.06       51875756 B   ---   --   ---xx   flac  0.4738  phish2012-07-04d02t11.flac
     7:34.05       80097404 B   ---   --   ---xx   flac  0.4478  phish2012-07-04d02t12.flac
     8:30.28       90029900 B   ---   --   ---xx   flac  0.4718  phish2012-07-04d02t13.flac
     1:25.60       15135164 B   ---   --   ---xx   flac  0.2932  phish2012-07-04d03t01.flac
     4:56.18       52256780 B   ---   --   ---xx   flac  0.4030  phish2012-07-04d03t02.flac
    10:27.11      110628716 B   ---   --   ---xx   flac  0.4092  phish2012-07-04d03t03.flac
     5:40.65       60128924 B   ---   --   ---xx   flac  0.4229  phish2012-07-04d03t04.flac
     5:09.50       54625244 B   ---   --   ---xx   flac  0.4302  phish2012-07-04d03t05.flac
     9:08.12       96695468 B   ---   --   ---xx   flac  0.4032  phish2012-07-04d03t06.flac
     5:34.73       59089340 B   ---   --   ---xx   flac  0.3895  phish2012-07-04d03t07.flac
     4:05.31       43290956 B   ---   --   ---xx   flac  0.4813  phish2012-07-04d03t08.flac
   185:31.35     1963592172 B                            0.4364  (33 files)













Show Checksums
16bit-FFP
phish2012-07-04d01t01.flac:8cbadb357ffedf82acec7e1212df48c0
phish2012-07-04d01t02.flac:9436fe7f4e3e157684a4c2a04ee52f6e
phish2012-07-04d01t03.flac:8d1cd980259b5a464828621b962d308c
phish2012-07-04d01t04.flac:d5bc8eb4ef330358a71d1d8ef5c45604
phish2012-07-04d01t05.flac:a54cbde15c5fb56afc418d41fa41ecac
phish2012-07-04d01t06.flac:62b7e68368e179bb965883e6684bb4b6
phish2012-07-04d01t07.flac:5ff434c31330274af4db84a32c4f0679
phish2012-07-04d01t08.flac:f743d7eef901c02a23a8d71067341c57
phish2012-07-04d01t09.flac:a8be10ac6007f8cd41be030d1e06e277
phish2012-07-04d01t10.flac:28711e1ebedb6f39a3711eebe238e835
phish2012-07-04d01t11.flac:50d4158030c4c12590b8ec11250b1571
phish2012-07-04d01t12.flac:33c01a9a6ac3b7e964e2166a015919d4
phish2012-07-04d02t01.flac:bddbe3aa387afe8396386556f2870946
phish2012-07-04d02t02.flac:60008175cdb26083fa8d58b63dbe4d64
phish2012-07-04d02t03.flac:60dceb0eaa3c796fa27cca848a1cb55c
phish2012-07-04d02t04.flac:08d8743420fc7787291afba8539b9977
phish2012-07-04d02t05.flac:132edcd2d6cd6f40d2ffa2068ec69dcc
phish2012-07-04d02t06.flac:4e3c864edf3a13fc70df14c5d70b4b85
phish2012-07-04d02t07.flac:42594c889dc9fbcf56cbe02a57661084
phish2012-07-04d02t08.flac:e9ffe0bb065d34ef78afd6b4192cabfb
phish2012-07-04d02t09.flac:d44b7d41878b8bd2ea79fb758d8837a4
phish2012-07-04d02t10.flac:c3cd29b198e9bb9fb39b7803c6ad8187
phish2012-07-04d02t11.flac:15cdad8b910ddfbc9791dc6f604700cc
phish2012-07-04d02t12.flac:1d7f5073eda447f3e469402a731bbdb2
phish2012-07-04d02t13.flac:f0e0c8a495a046e6e295c61b6493b557
phish2012-07-04d03t01.flac:ae7e1e4be99b30673bf879a544a70a88
phish2012-07-04d03t02.flac:33df4f4c5d7f5248299d99ab756d42b7
phish2012-07-04d03t03.flac:14e74f7303e4af7346a9fbe315d261d3
phish2012-07-04d03t04.flac:614f0cac12c0e9c1545b1c78d839cf80
phish2012-07-04d03t05.flac:75ce932e6f3c496256b02983867cea47
phish2012-07-04d03t06.flac:57416b4c52dc594a2789ac64f9977ed0
phish2012-07-04d03t07.flac:51f161205aab79b371d83ae8a94b2222
phish2012-07-04d03t08.flac:aaf1dcaf4d7299c1d06e11370e8365f3

Comments
Add Comment
Other Sources (comments)
flac16; Sennheiser... (0) flac16; Schoeps mk41... (0) flac24; Schoeps mk41... (0) flac16; Schoeps MK41... (0) flac24; Schoeps MK41... (0) flac16; Neumann... (0) flac16 44.1khz... (0) flac24 48khz... (0)
Date User Comment