Browse Collections Artists Sources   Search Dates

Add Show    List Management    Help


Phish 07/04/12
Nikon at Jones Beach Theater, Wantagh, NY
Comments Add Comment    Source Collectors    Add to Collection    Add to Want List    History
Source # 121176 Other Sources
Entered by Jason Sobel
Checksums 16bit-FFP
Disc Counts 0 / 0
Media Size Compressed: 955.22 MB (1001625078 bytes)
Date Circulated
Date Added
07/10/2012
07/10/2012
Source Summary flac16; Schoeps MK41 > KC5 > CMC6 > Sonosax SX-R4 (24bit/96khz); WAV > USB > Macbook Pro > Wave Editor (tracking, fades, resample(izotope)/dither(mbit+) to 16 bit/44.1k) > XAct > FLAC (level 8); Taped & Transferred by Andy Murray 
Source Information - Download Text | Download Zip
Phish
2012-07-04
Nikon at Jones Beach Theatre
Wantagh, NH

Recorded and transferred by Andy Murray

Mics were right of center from tapers section

Schoeps MK41>KC5>CMC6>Sonosax SX-R4(24bit/96khz)

WAV>USB>Macbook Pro>Wave Editor(tracking,fades,resample(izotope)/dither(mbit+)to 16 bit/44.1k)>XAct(FLAC 8,ffp,fix sbe)

2 Sets

Set 1:
01 Crowd
02 Alumni Blues >
03 Letter to Jimmy Page >
04 Alumni Blues
05 Head Held High
06 The Man Who Stepped Into Yesterday >
07 Avenu Malkenu >
08 The Man Who Stepped Into Yesterday
09 Kill Devil Falls
10 Bittersweet Motel
11 The Moma Dance >
12 Gumbo >
13 David Bowie
14 Alaska >
15 Susskind Hotel
16 Hold Your Head Up >
17 Purple Rain > [1]
18 Hold Your Head Up
19 The Star Spangled Banner

Set 2:
01 Crowd
02 Boogie On Reggae Woman >
03 Tweezer >
04 Twist >
05 Taste >
06 Quinn the Eskimo >
07 Julius >
08 Rock and Roll >
09 The Horse >
10 Silent in the Morning >
11 Harry Hood >
12 Shine a Light >
13 Show of Life >
14 Slave to the Traffic Light

Encore:
15 Sleeping Monkey > [2]
16 Tweezer Reprise

[1] Lyrics changed to "tucking in the Purple Rain."
[2] Lyrics changed to "Why'd you tuck my monkey on a train."

Notes: Alumni Blues was preceded by a Dave's Energy Guide tease. Head Held High was played for the first time since October 31, 1998 (356 shows). The Man Who Stepped Into Yesterday and Avenu Malkenu were played for the first time since June 21, 2009 (136 shows). Bittersweet Motel was played for the first time since August 2, 2009 (132 shows). Purple Rain was played for the first time since July 25, 1999 (314 shows) and included alternate lyrics "tucking in the Purple Rain" and "I am Friar Tuck!" Sleeping Monkey contained alternate lyrics "Why'd you tuck my monkey on a train."

;flac fingerprints generated by xACT 2.18 on 2012-07-10 20:52:40 -0400

ph2012-07-04_mk41_1644_d1t01.flac:cb6cccb8c34a94d57dc9c0becfa7e49d
ph2012-07-04_mk41_1644_d1t02.flac:0698ef9d79dc975b0fbdc68bc98705dc
ph2012-07-04_mk41_1644_d1t03.flac:9e9902692bd4fafb88c35e58dd984d24
ph2012-07-04_mk41_1644_d1t04.flac:61016d5f3718980e307b97c5269a8de8
ph2012-07-04_mk41_1644_d1t05.flac:3cc09dd193e62be6f91cb8240a67e247
ph2012-07-04_mk41_1644_d1t06.flac:dc27f83398b9ea6decf05709e6fbb000
ph2012-07-04_mk41_1644_d1t07.flac:4639ccb05be7c4e44e36aad72abba20a
ph2012-07-04_mk41_1644_d1t08.flac:7b8e452079c4da342b56ea94ca999e5f
ph2012-07-04_mk41_1644_d1t09.flac:b268e24f11e21ea5592ab2319fa32e9a
ph2012-07-04_mk41_1644_d1t10.flac:d74931742b9013204eb208b98a6e7976
ph2012-07-04_mk41_1644_d1t11.flac:57b225c076458b012081e0ef93752e7a
ph2012-07-04_mk41_1644_d1t12.flac:0e3e789ff54592f75cb3380136f9c9bf
ph2012-07-04_mk41_1644_d1t13.flac:1a8cdd79554bee52ee96637d352543b1
ph2012-07-04_mk41_1644_d1t14.flac:ade7e213ff5af89b08e34a2cf310b252
ph2012-07-04_mk41_1644_d1t15.flac:e2f10fc652a032c86f1186f5b9b9deed
ph2012-07-04_mk41_1644_d1t16.flac:f0e93335310e62cefea04ce25556a6ac
ph2012-07-04_mk41_1644_d1t17.flac:ddb9cd446b1f831e78e83f5404956cd0
ph2012-07-04_mk41_1644_d1t18.flac:d5a305998a1b946d5e69dc03392f313e
ph2012-07-04_mk41_1644_d1t19.flac:f7c65eaecbd79e6efed4b97195392fc0
ph2012-07-04_mk41_1644_d2t01.flac:f0eb5102765c996a2a3994a30b52e4c7
ph2012-07-04_mk41_1644_d2t02.flac:967a679bfa03cd24b1c9141d806ec4bd
ph2012-07-04_mk41_1644_d2t03.flac:7612f8a2fbbcd582f8d8a35848619bdb
ph2012-07-04_mk41_1644_d2t04.flac:56cdf891a31c061f5cd478ddd858ac65
ph2012-07-04_mk41_1644_d2t05.flac:38155ff42c722b2d308b5f1fde5b776f
ph2012-07-04_mk41_1644_d2t06.flac:6d8cc29cb0105a0742fb12a06f8e7980
ph2012-07-04_mk41_1644_d2t07.flac:696a1cb43f87540ef160c79d421820bd
ph2012-07-04_mk41_1644_d2t08.flac:48ea34f15e9b03273a07981e47773443
ph2012-07-04_mk41_1644_d2t09.flac:af91c42a7b7cc804e9201125d1623254
ph2012-07-04_mk41_1644_d2t10.flac:32b876ae0ac7aa294ceb5a81f786704c
ph2012-07-04_mk41_1644_d2t11.flac:b2f992ef06ae7f8f7628f4d69203bd02
ph2012-07-04_mk41_1644_d2t12.flac:91515aa04d670342bb308fa443c1b792
ph2012-07-04_mk41_1644_d2t13.flac:a705ff5a794dc12f68278b9d9c577446
ph2012-07-04_mk41_1644_d2t14.flac:095634e9f5650f22006b1b4ed951e1ba
ph2012-07-04_mk41_1644_d2t15.flac:cc9c93f27a4bc1ba20b38601fccd91f7
ph2012-07-04_mk41_1644_d2t16.flac:4ff0ee3dc0eee0866f104b15edafdc48

    length     expanded size    cdr  WAVE problems  fmt   ratio  filename
     0:46.47        8224988 B   ---   --   -----    wav  1.0000  ph2012-07-04_mk41_1644_d1t01.wav
     3:20.50       35397644 B   ---   --   -----    wav  1.0000  ph2012-07-04_mk41_1644_d1t02.wav
     1:00.09       10605212 B   ---   --   -----    wav  1.0000  ph2012-07-04_mk41_1644_d1t03.wav
     3:09.04       33349052 B   ---   --   -----    wav  1.0000  ph2012-07-04_mk41_1644_d1t04.wav
     5:53.49       62384492 B   ---   --   -----    wav  1.0000  ph2012-07-04_mk41_1644_d1t05.wav
     3:33.73       37744940 B   ---   --   -----    wav  1.0000  ph2012-07-04_mk41_1644_d1t06.wav
     3:18.20       34974284 B   ---   --   -----    wav  1.0000  ph2012-07-04_mk41_1644_d1t07.wav
     1:47.46       18983036 B   ---   --   -----    wav  1.0000  ph2012-07-04_mk41_1644_d1t08.wav
     8:46.60       92927564 B   ---   --   -----    wav  1.0000  ph2012-07-04_mk41_1644_d1t09.wav
     3:13.37       34132268 B   ---   --   -----    wav  1.0000  ph2012-07-04_mk41_1644_d1t10.wav
     7:50.41       83004476 B   ---   --   -----    wav  1.0000  ph2012-07-04_mk41_1644_d1t11.wav
     4:33.07       48173708 B   ---   --   -----    wav  1.0000  ph2012-07-04_mk41_1644_d1t12.wav
    10:59.15      116282924 B   ---   --   -----    wav  1.0000  ph2012-07-04_mk41_1644_d1t13.wav
     8:50.45       93597884 B   ---   --   -----    wav  1.0000  ph2012-07-04_mk41_1644_d1t14.wav
     6:51.49       72615692 B   ---   --   -----    wav  1.0000  ph2012-07-04_mk41_1644_d1t15.wav
     1:56.01       20464796 B   ---   --   -----    wav  1.0000  ph2012-07-04_mk41_1644_d1t16.wav
     5:20.12       56476268 B   ---   --   -----    wav  1.0000  ph2012-07-04_mk41_1644_d1t17.wav
     2:22.56       25180556 B   ---   --   -----    wav  1.0000  ph2012-07-04_mk41_1644_d1t18.wav
     1:48.60       19192364 B   ---   --   -----    wav  1.0000  ph2012-07-04_mk41_1644_d1t19.wav
     1:05.22       11517788 B   ---   --   -----    wav  1.0000  ph2012-07-04_mk41_1644_d2t01.wav
     5:47.25       61269644 B   ---   --   -----    wav  1.0000  ph2012-07-04_mk41_1644_d2t02.wav
    10:57.12      115923068 B   ---   --   -----    wav  1.0000  ph2012-07-04_mk41_1644_d2t03.wav
     7:59.24       84552092 B   ---   --   -----    wav  1.0000  ph2012-07-04_mk41_1644_d2t04.wav
     7:45.56       82157756 B   ---   --   -----    wav  1.0000  ph2012-07-04_mk41_1644_d2t05.wav
     4:48.43       50904380 B   ---   --   -----    wav  1.0000  ph2012-07-04_mk41_1644_d2t06.wav
     7:40.21       81193436 B   ---   --   -----    wav  1.0000  ph2012-07-04_mk41_1644_d2t07.wav
     8:30.28       90029900 B   ---   --   -----    wav  1.0000  ph2012-07-04_mk41_1644_d2t08.wav
     1:18.35       13841564 B   ---   --   -----    wav  1.0000  ph2012-07-04_mk41_1644_d2t09.wav
     4:56.05       52226204 B   ---   --   -----    wav  1.0000  ph2012-07-04_mk41_1644_d2t10.wav
    10:27.07      110619308 B   ---   --   -----    wav  1.0000  ph2012-07-04_mk41_1644_d2t11.wav
     5:41.10       60175964 B   ---   --   -----    wav  1.0000  ph2012-07-04_mk41_1644_d2t12.wav
     5:08.65       54484124 B   ---   --   -----    wav  1.0000  ph2012-07-04_mk41_1644_d2t13.wav
    10:46.14      113987372 B   ---   --   -----    wav  1.0000  ph2012-07-04_mk41_1644_d2t14.wav
     5:27.29       57751052 B   ---   --   -----    wav  1.0000  ph2012-07-04_mk41_1644_d2t15.wav
     3:45.71       39857036 B   ---   --   -----    wav  1.0000  ph2012-07-04_mk41_1644_d2t16.wav
   187:28.23     1984202836 B                            1.0000  (35 files)



Show Checksums
16bit-FFP
ph2012-07-04_mk41_1644_d1t01.flac:cb6cccb8c34a94d57dc9c0becfa7e49d
ph2012-07-04_mk41_1644_d1t02.flac:0698ef9d79dc975b0fbdc68bc98705dc
ph2012-07-04_mk41_1644_d1t03.flac:9e9902692bd4fafb88c35e58dd984d24
ph2012-07-04_mk41_1644_d1t04.flac:61016d5f3718980e307b97c5269a8de8
ph2012-07-04_mk41_1644_d1t05.flac:3cc09dd193e62be6f91cb8240a67e247
ph2012-07-04_mk41_1644_d1t06.flac:dc27f83398b9ea6decf05709e6fbb000
ph2012-07-04_mk41_1644_d1t07.flac:4639ccb05be7c4e44e36aad72abba20a
ph2012-07-04_mk41_1644_d1t08.flac:7b8e452079c4da342b56ea94ca999e5f
ph2012-07-04_mk41_1644_d1t09.flac:b268e24f11e21ea5592ab2319fa32e9a
ph2012-07-04_mk41_1644_d1t10.flac:d74931742b9013204eb208b98a6e7976
ph2012-07-04_mk41_1644_d1t11.flac:57b225c076458b012081e0ef93752e7a
ph2012-07-04_mk41_1644_d1t12.flac:0e3e789ff54592f75cb3380136f9c9bf
ph2012-07-04_mk41_1644_d1t13.flac:1a8cdd79554bee52ee96637d352543b1
ph2012-07-04_mk41_1644_d1t14.flac:ade7e213ff5af89b08e34a2cf310b252
ph2012-07-04_mk41_1644_d1t15.flac:e2f10fc652a032c86f1186f5b9b9deed
ph2012-07-04_mk41_1644_d1t16.flac:f0e93335310e62cefea04ce25556a6ac
ph2012-07-04_mk41_1644_d1t17.flac:ddb9cd446b1f831e78e83f5404956cd0
ph2012-07-04_mk41_1644_d1t18.flac:d5a305998a1b946d5e69dc03392f313e
ph2012-07-04_mk41_1644_d1t19.flac:f7c65eaecbd79e6efed4b97195392fc0
ph2012-07-04_mk41_1644_d2t01.flac:f0eb5102765c996a2a3994a30b52e4c7
ph2012-07-04_mk41_1644_d2t02.flac:967a679bfa03cd24b1c9141d806ec4bd
ph2012-07-04_mk41_1644_d2t03.flac:7612f8a2fbbcd582f8d8a35848619bdb
ph2012-07-04_mk41_1644_d2t04.flac:56cdf891a31c061f5cd478ddd858ac65
ph2012-07-04_mk41_1644_d2t05.flac:38155ff42c722b2d308b5f1fde5b776f
ph2012-07-04_mk41_1644_d2t06.flac:6d8cc29cb0105a0742fb12a06f8e7980
ph2012-07-04_mk41_1644_d2t07.flac:696a1cb43f87540ef160c79d421820bd
ph2012-07-04_mk41_1644_d2t08.flac:48ea34f15e9b03273a07981e47773443
ph2012-07-04_mk41_1644_d2t09.flac:af91c42a7b7cc804e9201125d1623254
ph2012-07-04_mk41_1644_d2t10.flac:32b876ae0ac7aa294ceb5a81f786704c
ph2012-07-04_mk41_1644_d2t11.flac:b2f992ef06ae7f8f7628f4d69203bd02
ph2012-07-04_mk41_1644_d2t12.flac:91515aa04d670342bb308fa443c1b792
ph2012-07-04_mk41_1644_d2t13.flac:a705ff5a794dc12f68278b9d9c577446
ph2012-07-04_mk41_1644_d2t14.flac:095634e9f5650f22006b1b4ed951e1ba
ph2012-07-04_mk41_1644_d2t15.flac:cc9c93f27a4bc1ba20b38601fccd91f7
ph2012-07-04_mk41_1644_d2t16.flac:4ff0ee3dc0eee0866f104b15edafdc48

Comments
Add Comment
Other Sources (comments)
flac16; Sennheiser... (0) flac16; Schoeps... (0) flac16; Schoeps mk41... (0) flac24; Schoeps mk41... (0) flac24; Schoeps MK41... (0) flac16; Neumann... (0) flac16 44.1khz... (0) flac24 48khz... (0)
Date User Comment