Browse Collections Artists Sources   Search Dates

Add Show    List Management    Help


Phish 07/06/12
Saratoga Performing Arts Center, Saratoga Springs, NY
Comments Add Comment    Source Collectors    Add to Collection    Add to Want List    History
Source # 121285 Other Sources
Entered by Jason Sobel
Checksums 16bit-FFP
Disc Counts 0 / 0
Media Size Compressed: 966.44 MB (1013382238 bytes)
Date Circulated
Date Added
07/12/2012
07/16/2012
Source Summary flac16; Schoeps MK41 > KC5 > CMC6 > Sonosax SX-R4 (24bit/96khz); WAV > USB > Macbook Pro > Wave Editor (tracking, fades, resample/dither to 16 bit/44.1k) > XAct > FLAC (Level 8); Taped & Transferred by Andy Murray 
Source Information - Download Text | Download Zip
Phish
2012-07-06
Saratoga Performing Arts Center
Saratoga Springs, NY

Recorded and transferred by Andy Murray

Mics were right of center from tapers section

Schoeps MK41>KC5>CMC6>Sonosax SX-R4(24bit/96khz)

WAV>USB>Macbook Pro>Wave Editor(tracking,fades,resample(izotope)/dither(mbit+)to 16 bit/44.1k)>XAct(FLAC 8,ffp,fix sbe)

2 Sets

Set 1:
01 Crowd
02 Runaway Jim
03 Ocelot
04 Heavy Things
05 Back on the Train
06 Funky Bitch
07 Tube ->
08 Psycho Killer ->
09 Tube
10 Hold Your Head Up [1]
11 Cracklin' Rosie >
12 Hold Your Head Up
13 Stash
14 Bouncing Around the Room
15 Paul and Silas
16 Horn
17 Corinna
18 Light Up Or Leave Me Alone

Set 2:
01 Crowd
02 Chalk Dust Torture >
03 Carini >
04 Sand
05 Roses Are Free >
06 Punch You In the Eye >
07 Sneakin' Sally Through the Alley >
08 Ghost >
09 Suzy Greenberg >
10 Run Like an Antelope [2]

Encore:
11 Loving Cup

[1] Psycho Killer quotes and "tucking" references.
[2] Crosseyed and Painless tease; Tom Marshall and the Dude of Life on vocals; Lyrics changed to "Been you to have any spleef."

Notes: Psycho Killer was played for the first time since August 14, 2009 (127 shows). HYHU contained Psycho Killer teases and quotes as well as references to tucking. Prior to Cracklin' Rosie, Fish was introduced as Friar Tuck. Cracklin' Rosie was played for the first time since December 10, 1999 (279 shows). Mike teased Shafty after the second HYHU. Antelope contained a Crosseyed and Painless tease. Tom Marshall and Steve Pollak (aka the "Dude of Life") sang the lyrics to Antelope. The lyrics to Antelope were changed to "Been you to have any spleef."

;flac fingerprints generated by xACT 2.18 on 2012-07-12 15:55:36 -0400

ph2012-07-06_mk41_1644_d1t01.flac:5de60501c82352e321cc8c81f5faeced
ph2012-07-06_mk41_1644_d1t02.flac:492f8d00208e53f8dd45454bd8e65eac
ph2012-07-06_mk41_1644_d1t03.flac:f4c9dc7b7f36abc6fe66675fb4125f02
ph2012-07-06_mk41_1644_d1t04.flac:5e365d5fc0a821bc852123ebc5e35415
ph2012-07-06_mk41_1644_d1t05.flac:6789748910b3bd9241d250b620ca78ee
ph2012-07-06_mk41_1644_d1t06.flac:7441cd9446914aadf8d27f994575aabf
ph2012-07-06_mk41_1644_d1t07.flac:d60e58353fccd1730c69720bf79d02d0
ph2012-07-06_mk41_1644_d1t08.flac:71979f1ef652fa1e920e1fcf4b0b2434
ph2012-07-06_mk41_1644_d1t09.flac:4f615d394244dc8a506b25ec72dfc12f
ph2012-07-06_mk41_1644_d1t10.flac:b293426ff987ba26687bf9f9f051e2bf
ph2012-07-06_mk41_1644_d1t11.flac:0d1e7ab30bea457aad9c7709aedbb98c
ph2012-07-06_mk41_1644_d1t12.flac:906b2875a2aae5b3b24e50ebab877e79
ph2012-07-06_mk41_1644_d1t13.flac:de1e1ba18f278ac1496a35e81f526557
ph2012-07-06_mk41_1644_d1t14.flac:f63a3440dc0826d630865bdf588f8636
ph2012-07-06_mk41_1644_d1t15.flac:efd09f629b2317aa3cae4d52f490481f
ph2012-07-06_mk41_1644_d1t16.flac:093ecc506fac935e3a583159c45952d6
ph2012-07-06_mk41_1644_d1t17.flac:352064869775fab4b35e5be37b78ca0b
ph2012-07-06_mk41_1644_d1t18.flac:cef207b5c222622756542f8a13b0e8ba
ph2012-07-06_mk41_1644_d2t01.flac:77f0e20e185ebf4eefb9fd9cae053d4e
ph2012-07-06_mk41_1644_d2t02.flac:22247d9ca3bb08754774ca20b23538ac
ph2012-07-06_mk41_1644_d2t03.flac:51a41695d22414765a02d8116703e474
ph2012-07-06_mk41_1644_d2t04.flac:b6620c90b9640ff7251cac803da65f1e
ph2012-07-06_mk41_1644_d2t05.flac:e91b9a9b1998204ec29dec346af54d82
ph2012-07-06_mk41_1644_d2t06.flac:1cf2d1d6a99433a4e25257e887833a93
ph2012-07-06_mk41_1644_d2t07.flac:969eb96bd75c4c86bae09a398c3cd6aa
ph2012-07-06_mk41_1644_d2t08.flac:fcae67601ae6dce06a3f29d468f23005
ph2012-07-06_mk41_1644_d2t09.flac:9b2aecdc2d2c32fe81fe71a2592658a4
ph2012-07-06_mk41_1644_d2t10.flac:6b9b38bbab159823a34cf743d5ac7264
ph2012-07-06_mk41_1644_d2t11.flac:b280fbdf3125109e12170d171db9e491

   length     expanded size    cdr  WAVE problems  fmt   ratio  filename
     1:02.02       10941548 B   ---   --   -----    wav  1.0000  ph2012-07-06_mk41_1644_d1t01.wav
     7:21.41       77888876 B   ---   --   -----    wav  1.0000  ph2012-07-06_mk41_1644_d1t02.wav
     8:50.35       93574364 B   ---   --   -----    wav  1.0000  ph2012-07-06_mk41_1644_d1t03.wav
     6:10.69       65430332 B   ---   --   -----    wav  1.0000  ph2012-07-06_mk41_1644_d1t04.wav
     9:04.31       96034556 B   ---   --   -----    wav  1.0000  ph2012-07-06_mk41_1644_d1t05.wav
     6:07.61       64882316 B   ---   --   -----    wav  1.0000  ph2012-07-06_mk41_1644_d1t06.wav
     1:39.52       17585948 B   ---   --   -----    wav  1.0000  ph2012-07-06_mk41_1644_d1t07.wav
     2:00.05       21179804 B   ---   --   -----    wav  1.0000  ph2012-07-06_mk41_1644_d1t08.wav
     3:05.23       32688140 B   ---   --   -----    wav  1.0000  ph2012-07-06_mk41_1644_d1t09.wav
     2:20.11       24721916 B   ---   --   -----    wav  1.0000  ph2012-07-06_mk41_1644_d1t10.wav
     3:03.60       32422364 B   ---   --   -----    wav  1.0000  ph2012-07-06_mk41_1644_d1t11.wav
     3:42.42       39259628 B   ---   --   -----    wav  1.0000  ph2012-07-06_mk41_1644_d1t12.wav
    11:17.69      119585132 B   ---   --   -----    wav  1.0000  ph2012-07-06_mk41_1644_d1t13.wav
     3:46.13       39897020 B   ---   --   -----    wav  1.0000  ph2012-07-06_mk41_1644_d1t14.wav
     2:46.70       29447084 B   ---   --   -----    wav  1.0000  ph2012-07-06_mk41_1644_d1t15.wav
     4:29.53       47576300 B   ---   --   -----    wav  1.0000  ph2012-07-06_mk41_1644_d1t16.wav
     5:39.22       59851388 B   ---   --   -----    wav  1.0000  ph2012-07-06_mk41_1644_d1t17.wav
     8:58.63       95051420 B   ---   --   -----    wav  1.0000  ph2012-07-06_mk41_1644_d1t18.wav
     0:39.13        6910220 B   ---   --   -----    wav  1.0000  ph2012-07-06_mk41_1644_d2t01.wav
     8:00.59       84810812 B   ---   --   -----    wav  1.0000  ph2012-07-06_mk41_1644_d2t02.wav
     8:53.00       94021244 B   ---   --   -----    wav  1.0000  ph2012-07-06_mk41_1644_d2t03.wav
    10:16.41      108758876 B   ---   --   -----    wav  1.0000  ph2012-07-06_mk41_1644_d2t04.wav
     5:25.50       57447644 B   ---   --   -----    wav  1.0000  ph2012-07-06_mk41_1644_d2t05.wav
     9:35.11      101455916 B   ---   --   -----    wav  1.0000  ph2012-07-06_mk41_1644_d2t06.wav
    13:00.00      137592044 B   ---   --   -----    wav  1.0000  ph2012-07-06_mk41_1644_d2t07.wav
    11:43.53      124133900 B   ---   --   -----    wav  1.0000  ph2012-07-06_mk41_1644_d2t08.wav
     5:42.65       60481724 B   ---   --   -----    wav  1.0000  ph2012-07-06_mk41_1644_d2t09.wav
    13:14.67      140219228 B   ---   --   -----    wav  1.0000  ph2012-07-06_mk41_1644_d2t10.wav
     6:48.10       71994764 B   ---   --   -----    wav  1.0000  ph2012-07-06_mk41_1644_d2t11.wav
   184:47.41     1955844508 B                            1.0000  (29 files)



Show Checksums
16bit-FFP
ph2012-07-06_mk41_1644_d1t01.flac:5de60501c82352e321cc8c81f5faeced
ph2012-07-06_mk41_1644_d1t02.flac:492f8d00208e53f8dd45454bd8e65eac
ph2012-07-06_mk41_1644_d1t03.flac:f4c9dc7b7f36abc6fe66675fb4125f02
ph2012-07-06_mk41_1644_d1t04.flac:5e365d5fc0a821bc852123ebc5e35415
ph2012-07-06_mk41_1644_d1t05.flac:6789748910b3bd9241d250b620ca78ee
ph2012-07-06_mk41_1644_d1t06.flac:7441cd9446914aadf8d27f994575aabf
ph2012-07-06_mk41_1644_d1t07.flac:d60e58353fccd1730c69720bf79d02d0
ph2012-07-06_mk41_1644_d1t08.flac:71979f1ef652fa1e920e1fcf4b0b2434
ph2012-07-06_mk41_1644_d1t09.flac:4f615d394244dc8a506b25ec72dfc12f
ph2012-07-06_mk41_1644_d1t10.flac:b293426ff987ba26687bf9f9f051e2bf
ph2012-07-06_mk41_1644_d1t11.flac:0d1e7ab30bea457aad9c7709aedbb98c
ph2012-07-06_mk41_1644_d1t12.flac:906b2875a2aae5b3b24e50ebab877e79
ph2012-07-06_mk41_1644_d1t13.flac:de1e1ba18f278ac1496a35e81f526557
ph2012-07-06_mk41_1644_d1t14.flac:f63a3440dc0826d630865bdf588f8636
ph2012-07-06_mk41_1644_d1t15.flac:efd09f629b2317aa3cae4d52f490481f
ph2012-07-06_mk41_1644_d1t16.flac:093ecc506fac935e3a583159c45952d6
ph2012-07-06_mk41_1644_d1t17.flac:352064869775fab4b35e5be37b78ca0b
ph2012-07-06_mk41_1644_d1t18.flac:cef207b5c222622756542f8a13b0e8ba
ph2012-07-06_mk41_1644_d2t01.flac:77f0e20e185ebf4eefb9fd9cae053d4e
ph2012-07-06_mk41_1644_d2t02.flac:22247d9ca3bb08754774ca20b23538ac
ph2012-07-06_mk41_1644_d2t03.flac:51a41695d22414765a02d8116703e474
ph2012-07-06_mk41_1644_d2t04.flac:b6620c90b9640ff7251cac803da65f1e
ph2012-07-06_mk41_1644_d2t05.flac:e91b9a9b1998204ec29dec346af54d82
ph2012-07-06_mk41_1644_d2t06.flac:1cf2d1d6a99433a4e25257e887833a93
ph2012-07-06_mk41_1644_d2t07.flac:969eb96bd75c4c86bae09a398c3cd6aa
ph2012-07-06_mk41_1644_d2t08.flac:fcae67601ae6dce06a3f29d468f23005
ph2012-07-06_mk41_1644_d2t09.flac:9b2aecdc2d2c32fe81fe71a2592658a4
ph2012-07-06_mk41_1644_d2t10.flac:6b9b38bbab159823a34cf743d5ac7264
ph2012-07-06_mk41_1644_d2t11.flac:b280fbdf3125109e12170d171db9e491

Comments
Add Comment
Other Sources (comments)
flac16; DPA 4023 >... (0) flac16; Sennheiser... (0) flac16; Neumann... (0) flac16; Schoeps MK4V... (0) flac24; Schoeps MK4V... (0) flac24; Schoeps MK41... (0) flac16; Microtech... (0) flac24; Microtech... (0) flac24; DPA 4023 >... (0) flac16; Neumann... (0)
Date User Comment