Browse Collections Artists Sources   Search Dates

Add Show    List Management    Help


Phish 07/07/12
Saratoga Performing Arts Center, Saratoga Springs, NY
Comments Add Comment    Source Collectors    Add to Collection    Add to Want List    History
Source # 121286 Other Sources
Entered by Jason Sobel
Checksums 16bit-FFP
Disc Counts 0 / 0
Media Size Compressed: 885.22 MB (928219901 bytes)
Date Circulated
Date Added
07/12/2012
07/16/2012
Source Summary flac16; Schoeps MK41 > KC5 > CMC6 > Sonosax SX-R4 (24bit/96khz); WAV > USB > Macbook Pro > Wave Editor (tracking, fades, resample/dither to 16 bit/44.1k) > XAct > FLAC (Level 8); Taped & Transferred by Andy Murray 
Source Information - Download Text | Download Zip
Phish
2012-07-07
Saratoga Performing Arts Center
Saratoga Springs, NY

Recorded and transferred by Andy Murray

Mics were right of center from tapers section

Schoeps MK41>KC5>CMC6>Sonosax SX-R4(24bit/96khz)

WAV>USB>Macbook Pro>Wave Editor(tracking,fades,resample(izotope)/dither(mbit+)to 16 bit/44.1k)>XAct(FLAC 8,ffp,fix sbe)

2 Sets

Set 1:
01 Crowd
02 Grind
03 Possum ->
04 Golgi Apparatus
05 The Moma Dance
06 Torn and Frayed
07 Rift
08 Cities ->
09 Maze
10 Lawn Boy
11 Peaches en Regalia ->
12 Bathtub Gin
13 Good Times Bad Times

Set 2:

01 Crowd
02 Down with Disease ->
03 Blister in the Sun -> [1]
04 Down with Disease -> [2]
05 Boogie On Reggae Woman ->
06 Golden Age ->
07 Also Sprach Zarathustra >
08 Backwards Down the Number Line ->  [3]
09 Prince Caspian -> [2]
10 Scent of a Mule ->
11 Blister in the Sun ->  [1]
12 Scent of a Mule ->
13 Mike's Song -> [3]
14 Contact >
15 Weekapaug Groove [3]

Encore:
16 Sabotage

[1] First verse only.
[2] Unfinished.
[3] Blister in the Sun teases from Trey.

Notes: Blister in the Sun was played for the first time since July 9, 1998 (390 shows). Both appearances of Blister in the Sun consisted of the first verse only. Down with Disease and Caspian were both unfinished. BDTNL, Mike's Song and Weekapaug all contained Blister in the Sun teases from Trey. Sabotage was dedicated to MCA.

;flac fingerprints generated by xACT 2.18 on 2012-07-12 21:21:48 -0400

ph2012-07-07_mk41_1644_d1t01.flac:5842edb6ae3c7eee36d768364cf3b975
ph2012-07-07_mk41_1644_d1t02.flac:1c8d2c39df2f483e75906caf7aded904
ph2012-07-07_mk41_1644_d1t03.flac:0af10aab066572d09833d8261495785b
ph2012-07-07_mk41_1644_d1t04.flac:de7c45b5baf854def862987c32cd502d
ph2012-07-07_mk41_1644_d1t05.flac:ad54d2e2b6b097a888b9c09f54e4fecb
ph2012-07-07_mk41_1644_d1t06.flac:5390dfdf7533fe8957d6bc2760b44871
ph2012-07-07_mk41_1644_d1t07.flac:90d97ff905578b1200cc2ed292349bff
ph2012-07-07_mk41_1644_d1t08.flac:4df91cecc53a3dadfb15ca95a6bc51be
ph2012-07-07_mk41_1644_d1t09.flac:5e77c054cde27d5885bebdc835ad802e
ph2012-07-07_mk41_1644_d1t10.flac:bf5311f388c19714f4cc7bb110019953
ph2012-07-07_mk41_1644_d1t11.flac:0e1fd0ea6fa22f88ed67586f21697682
ph2012-07-07_mk41_1644_d1t12.flac:81dbf1553de38a37e5974d8482558186
ph2012-07-07_mk41_1644_d1t13.flac:73f708bef246ce1687672a43cb36ab0b
ph2012-07-07_mk41_1644_d2t01.flac:799cfb12d1d4acd4fda9e89699efabdb
ph2012-07-07_mk41_1644_d2t02.flac:ecddc6b02c6760a7d775c743db30ee62
ph2012-07-07_mk41_1644_d2t03.flac:ffb14030d2ff1d8162ff3fe4352778a7
ph2012-07-07_mk41_1644_d2t04.flac:4ec12ff00cad005fd1019504898fb141
ph2012-07-07_mk41_1644_d2t05.flac:8a651a5870f20225559b17625165e73b
ph2012-07-07_mk41_1644_d2t06.flac:a20785baf87345a2ec842cb50b2f5ab7
ph2012-07-07_mk41_1644_d2t07.flac:c07b96da137d2965ecbfe3c2a9684c49
ph2012-07-07_mk41_1644_d2t08.flac:c2edd1a51ddd3041f87c2b523e09a286
ph2012-07-07_mk41_1644_d2t09.flac:1afb3f2353ea41c3009ce7a054ddb6b2
ph2012-07-07_mk41_1644_d2t10.flac:46a809d655fcd63e54eb1d3ef3ac54cc
ph2012-07-07_mk41_1644_d2t11.flac:e02ebd016686d516f0fbd98eee47ed17
ph2012-07-07_mk41_1644_d2t12.flac:9cb9f49bbc95657050525ae7a0a15738
ph2012-07-07_mk41_1644_d2t13.flac:d46591f153fe4df7d67b751c71f30938
ph2012-07-07_mk41_1644_d2t14.flac:efab609663672c13fa5de2daabb09829
ph2012-07-07_mk41_1644_d2t15.flac:4c3dfbc3451bb25636f79672beeca235
ph2012-07-07_mk41_1644_d2t16.flac:f98117d62d287ba557bdc0c503558339

    length     expanded size    cdr  WAVE problems  fmt   ratio  filename
     1:07.01       11821196 B   ---   --   -----    wav  1.0000  ph2012-07-07_mk41_1644_d1t01.wav
     1:37.28       17176700 B   ---   --   -----    wav  1.0000  ph2012-07-07_mk41_1644_d1t02.wav
     8:40.48       91840940 B   ---   --   -----    wav  1.0000  ph2012-07-07_mk41_1644_d1t03.wav
     4:48.03       50810300 B   ---   --   -----    wav  1.0000  ph2012-07-07_mk41_1644_d1t04.wav
     7:25.35       78580364 B   ---   --   -----    wav  1.0000  ph2012-07-07_mk41_1644_d1t05.wav
     7:39.05       80979404 B   ---   --   -----    wav  1.0000  ph2012-07-07_mk41_1644_d1t06.wav
     6:17.39       66594572 B   ---   --   -----    wav  1.0000  ph2012-07-07_mk41_1644_d1t07.wav
     6:00.46       63612236 B   ---   --   -----    wav  1.0000  ph2012-07-07_mk41_1644_d1t08.wav
     9:54.23      104835740 B   ---   --   -----    wav  1.0000  ph2012-07-07_mk41_1644_d1t09.wav
     3:24.02       35990348 B   ---   --   -----    wav  1.0000  ph2012-07-07_mk41_1644_d1t10.wav
     3:18.42       35026028 B   ---   --   -----    wav  1.0000  ph2012-07-07_mk41_1644_d1t11.wav
    11:56.67      126460028 B   ---   --   -----    wav  1.0000  ph2012-07-07_mk41_1644_d1t12.wav
     6:40.51       70679996 B   ---   --   -----    wav  1.0000  ph2012-07-07_mk41_1644_d1t13.wav
     1:32.43       16329980 B   ---   --   -----    wav  1.0000  ph2012-07-07_mk41_1644_d2t01.wav
     4:42.58       49881260 B   ---   --   -----    wav  1.0000  ph2012-07-07_mk41_1644_d2t02.wav
     0:45.13        7968620 B   ---   --   -----    wav  1.0000  ph2012-07-07_mk41_1644_d2t03.wav
     6:11.48       65557340 B   ---   --   -----    wav  1.0000  ph2012-07-07_mk41_1644_d2t04.wav
     7:03.40       74711324 B   ---   --   -----    wav  1.0000  ph2012-07-07_mk41_1644_d2t05.wav
     6:52.51       72796796 B   ---   --   -----    wav  1.0000  ph2012-07-07_mk41_1644_d2t06.wav
     6:19.39       66947372 B   ---   --   -----    wav  1.0000  ph2012-07-07_mk41_1644_d2t07.wav
     7:17.04       77096252 B   ---   --   -----    wav  1.0000  ph2012-07-07_mk41_1644_d2t08.wav
     6:12.09       65642012 B   ---   --   -----    wav  1.0000  ph2012-07-07_mk41_1644_d2t09.wav
     4:45.29       50342252 B   ---   --   -----    wav  1.0000  ph2012-07-07_mk41_1644_d2t10.wav
     0:37.18        6569180 B   ---   --   -----    wav  1.0000  ph2012-07-07_mk41_1644_d2t11.wav
     3:26.28       36404300 B   ---   --   -----    wav  1.0000  ph2012-07-07_mk41_1644_d2t12.wav
     7:28.58       79163660 B   ---   --   -----    wav  1.0000  ph2012-07-07_mk41_1644_d2t13.wav
     6:44.38       71355020 B   ---   --   -----    wav  1.0000  ph2012-07-07_mk41_1644_d2t14.wav
    10:48.13      114337820 B   ---   --   -----    wav  1.0000  ph2012-07-07_mk41_1644_d2t15.wav
     3:52.67       41082428 B   ---   --   -----    wav  1.0000  ph2012-07-07_mk41_1644_d2t16.wav
   163:30.46     1730593468 B                            1.0000  (29 files)


Show Checksums
16bit-FFP
ph2012-07-07_mk41_1644_d1t01.flac:5842edb6ae3c7eee36d768364cf3b975
ph2012-07-07_mk41_1644_d1t02.flac:1c8d2c39df2f483e75906caf7aded904
ph2012-07-07_mk41_1644_d1t03.flac:0af10aab066572d09833d8261495785b
ph2012-07-07_mk41_1644_d1t04.flac:de7c45b5baf854def862987c32cd502d
ph2012-07-07_mk41_1644_d1t05.flac:ad54d2e2b6b097a888b9c09f54e4fecb
ph2012-07-07_mk41_1644_d1t06.flac:5390dfdf7533fe8957d6bc2760b44871
ph2012-07-07_mk41_1644_d1t07.flac:90d97ff905578b1200cc2ed292349bff
ph2012-07-07_mk41_1644_d1t08.flac:4df91cecc53a3dadfb15ca95a6bc51be
ph2012-07-07_mk41_1644_d1t09.flac:5e77c054cde27d5885bebdc835ad802e
ph2012-07-07_mk41_1644_d1t10.flac:bf5311f388c19714f4cc7bb110019953
ph2012-07-07_mk41_1644_d1t11.flac:0e1fd0ea6fa22f88ed67586f21697682
ph2012-07-07_mk41_1644_d1t12.flac:81dbf1553de38a37e5974d8482558186
ph2012-07-07_mk41_1644_d1t13.flac:73f708bef246ce1687672a43cb36ab0b
ph2012-07-07_mk41_1644_d2t01.flac:799cfb12d1d4acd4fda9e89699efabdb
ph2012-07-07_mk41_1644_d2t02.flac:ecddc6b02c6760a7d775c743db30ee62
ph2012-07-07_mk41_1644_d2t03.flac:ffb14030d2ff1d8162ff3fe4352778a7
ph2012-07-07_mk41_1644_d2t04.flac:4ec12ff00cad005fd1019504898fb141
ph2012-07-07_mk41_1644_d2t05.flac:8a651a5870f20225559b17625165e73b
ph2012-07-07_mk41_1644_d2t06.flac:a20785baf87345a2ec842cb50b2f5ab7
ph2012-07-07_mk41_1644_d2t07.flac:c07b96da137d2965ecbfe3c2a9684c49
ph2012-07-07_mk41_1644_d2t08.flac:c2edd1a51ddd3041f87c2b523e09a286
ph2012-07-07_mk41_1644_d2t09.flac:1afb3f2353ea41c3009ce7a054ddb6b2
ph2012-07-07_mk41_1644_d2t10.flac:46a809d655fcd63e54eb1d3ef3ac54cc
ph2012-07-07_mk41_1644_d2t11.flac:e02ebd016686d516f0fbd98eee47ed17
ph2012-07-07_mk41_1644_d2t12.flac:9cb9f49bbc95657050525ae7a0a15738
ph2012-07-07_mk41_1644_d2t13.flac:d46591f153fe4df7d67b751c71f30938
ph2012-07-07_mk41_1644_d2t14.flac:efab609663672c13fa5de2daabb09829
ph2012-07-07_mk41_1644_d2t15.flac:4c3dfbc3451bb25636f79672beeca235
ph2012-07-07_mk41_1644_d2t16.flac:f98117d62d287ba557bdc0c503558339

Comments
Add Comment
Other Sources (comments)
flac16; Sennheiser... (0) flac16; DPA 4023 >... (0) flac16; Neumann U89i... (0) flac24; Schoeps MK41... (0) flac24; DPA 4023 >... (0) flac16; Schoeps MK4V... (0) flac24; Schoeps MK4V... (0) flac16; Neumann... (0) flac16; AKG 480/ck63... (0) flac24; AKG 480/ck63... (0) flac16; DPA 4023 >... (0) flac24; DPA 4023 >... (0)
Date User Comment