Browse Collections Artists Sources   Search Dates

Add Show    List Management    Help


Grateful Dead 12/30/80
Oakland Auditorium Arena, Oakland, CA
Comments Add Comment    Source Collectors    Add to Collection    Add to Want List    History
Source # 121396 Other Sources
Entered by Matt Vernon
Checksums ffp , flac-md5
Disc Counts 0 / 0
Media Size Compressed: 859.79 MB (901557214 bytes)
Uncompressed: 1.54 GB (1655449024 bytes)
Date Circulated
Date Added
07/22/2012
07/23/2012
Source Summary flac16; Source: Matrix (50/50) using mono sbd from video mixed with (shnid = 13300): AUD (nak 300's); Mixed by [email protected]; FLAC conversion 17-JUL-2012 
  Archive
Source Information - Download Text | Download Zip
Grateful Dead
Oakland Auditorium
Oakland, CA
December 30, 1980

CD 1
1st Set

Minglewood
Friend Of The Devil
Mama Tried
Mexicali
Brown Eyed Women
Beat It On Down The Line
Althea
Let It Grow
Deal

CD 2
2nd Set

Tuning
Shakedown
Samson
He's Gone
Truckin'
Drums

CD 3
2nd Set (cont)

Space
Not Fade Away
China Doll
Around & Around
Good Lovin'

Encore
U.S. Blues

Audio Source:
Matrix (50/50) using mono sbd from video mixed with
(shnid = 13300)
AUD (nak 300's)MCDATCD
Notes-
-Tape flip @ 1030 Drums
-I used CD Wave and Shntool to retrack and verify sb's, and CE2K for all editing.

EACSHN by Willy
[email protected]
Seeded to etree 111902
Audio discs provided by Paul B
Another installment of The Music Never Stopped Project!

---------------------------------------------------------
- Mixed by [email protected]
- FLAC conversion 17-JUL-2012
---------------------------------------------------------
Multitrack Mixdown Settings

SET ONE

Stereo Matrix
SBD -0
AUD -0

SET TWO

Stereo Matrix
SBD -0
AUD -0
---------------------------------------------------------

Brokedown House Productions

      length     expanded size    cdr  WAVE problems  fmt   ratio  filename
     7:07.58       75459260 B   ---   --   -----    wav  1.0000  gd1980-12-30d1t01.wav
     9:14.62       97871468 B   ---   --   -----    wav  1.0000  gd1980-12-30d1t02.wav
     2:30.42       26558828 B   ---   --   -----    wav  1.0000  gd1980-12-30d1t03.wav
     4:56.38       52303820 B   ---   --   -----    wav  1.0000  gd1980-12-30d1t04.wav
     6:16.26       66387596 B   ---   --   -----    wav  1.0000  gd1980-12-30d1t05.wav
     4:24.25       46628444 B   ---   --   -----    wav  1.0000  gd1980-12-30d1t06.wav
     8:35.36       90930716 B   ---   --   -----    wav  1.0000  gd1980-12-30d1t07.wav
    10:54.06      115379756 B   ---   --   -----    wav  1.0000  gd1980-12-30d1t08.wav
     8:18.44       87950732 B   ---   --   -----    wav  1.0000  gd1980-12-30d1t09.wav
    12:20.33      130613660 B   ---   --   -----    wav  1.0000  gd1980-12-30d2t01.wav
     8:05.33       85631660 B   ---   --   -----    wav  1.0000  gd1980-12-30d2t02.wav
    12:23.46      131173436 B   ---   --   -----    wav  1.0000  gd1980-12-30d2t03.wav
    13:04.60      138438764 B   ---   --   -----    wav  1.0000  gd1980-12-30d2t04.wav
    10:13.29      108201452 B   ---   --   -----    wav  1.0000  gd1980-12-30d2t05.wav
     4:24.35       46651964 B   ---   --   -----    wav  1.0000  gd1980-12-30d3t01.wav
     7:12.14       76237772 B   ---   --   -----    wav  1.0000  gd1980-12-30d3t02.wav
     8:16.04       87503852 B   ---   --   -----    wav  1.0000  gd1980-12-30d3t03.wav
     3:55.43       41555180 B   ---   --   -----    wav  1.0000  gd1980-12-30d3t04.wav
     8:44.36       92518316 B   ---   --   -----    wav  1.0000  gd1980-12-30d3t05.wav
     5:25.52       57452348 B   ---   --   -----    wav  1.0000  gd1980-12-30d3t06.wav
   156:24.47     1655449024 B                            1.0000  (20 files)


Show Checksums
ffp
gd1980-12-30d1t01.flac:c28f3a5f4741c59f1c3ec80ef00a6beb
gd1980-12-30d1t02.flac:da0d3f13fc8a2bd6b7f984e84a6356b7
gd1980-12-30d1t03.flac:bbda50b402782d4ce5c77cae37d6776d
gd1980-12-30d1t04.flac:4e72249c06c444fcd739be9cf98bc18f
gd1980-12-30d1t05.flac:64ec5e194477ea5236d74f7f1cf00496
gd1980-12-30d1t06.flac:1f5ee6ae4123ce4fa693d8aea4889feb
gd1980-12-30d1t07.flac:c02d2b4ded3e43319a9ede8b5a4182de
gd1980-12-30d1t08.flac:f7ecffdac71bae67c7c39fdb7e1c58f6
gd1980-12-30d1t09.flac:866a2a2312d4c8152d05bd40759d0c8c
gd1980-12-30d2t01.flac:e828b83a9974dd8a2b7ae6afde63758c
gd1980-12-30d2t02.flac:ece91d3529a6f4cef41f7fc5597f01a9
gd1980-12-30d2t03.flac:cf8488ee28ac48fdf53e1c292d156337
gd1980-12-30d2t04.flac:6eb1fc6aba419e14e243fad83a58d46b
gd1980-12-30d2t05.flac:547725cae49326ffbce8a4e9cad95594
gd1980-12-30d3t01.flac:3843be36142fb6ce39197c9c8eb156e4
gd1980-12-30d3t02.flac:93250fc6199d8057eb3789b814183728
gd1980-12-30d3t03.flac:952abb3834f20400d7a89fd723c0d372
gd1980-12-30d3t04.flac:3db03aad1323e1b9ca2f26b5e1469ad2
gd1980-12-30d3t05.flac:3fde4fff8f202773fbe2c551370685f5
gd1980-12-30d3t06.flac:bf1c90f4bb343163aff7ea69375850a9
flac-md5
a14db1e0ecc8394f657651b570667190 *gd1980-12-30d1t01.flac
00324f98d825cd63f1a9ce512bc05432 *gd1980-12-30d1t02.flac
25dfa45ab63b6918982c625150285472 *gd1980-12-30d1t03.flac
884b84b1f3d04ee4a96ab44691027668 *gd1980-12-30d1t04.flac
7922de411db8cecaa8377172611dafa0 *gd1980-12-30d1t05.flac
46ac5638add8f799c792dd97a6e01de9 *gd1980-12-30d1t06.flac
2977571b2cc8edadbaed6843e51dec3b *gd1980-12-30d1t07.flac
72d661506227706855d8d81aed2cd1e5 *gd1980-12-30d1t08.flac
94e3896a8a42466b227638d6a4b97b79 *gd1980-12-30d1t09.flac
6735c8cd8f211cd3efcfb932fb1388f6 *gd1980-12-30d2t01.flac
e631e5d2c90355c01d559ab1d755d833 *gd1980-12-30d2t02.flac
12baa310f8fc1d5f8c17651d84148bea *gd1980-12-30d2t03.flac
7c481097f4fe1d3500ea9a6a4be73f00 *gd1980-12-30d2t04.flac
93f007a8854aa5c52a044042b4114521 *gd1980-12-30d2t05.flac
5483a376280cb6b37358e68ca3948220 *gd1980-12-30d3t01.flac
b4407ab229d30808a9c931cb94255543 *gd1980-12-30d3t02.flac
623618bfe7d9bf7d38ad83f1e639eadd *gd1980-12-30d3t03.flac
c46874e770de7e5f875e43f087516838 *gd1980-12-30d3t04.flac
341eb0eb32613468a17b97c268ead868 *gd1980-12-30d3t05.flac
e01eec2074bcfa2623f7eedcdd07f74b *gd1980-12-30d3t06.flac

Comments
Add Comment
Other Sources (comments)
Recording by Steve Rolfe:... (1) flac16; Soundcheck... (0)
Date User Comment