Browse Collections Artists Sources   Search Dates

Add Show    List Management    Help


Grateful Dead 12/26/80
Oakland Auditorium Arena, Oakland, CA
Comments Add Comment    Source Collectors    Add to Collection    Add to Want List    History
Source # 121531 Other Sources
Entered by Gary Field
Checksums flac-md5 , ffp
Disc Counts 0 / 0
Media Size Compressed: 840 MB (880803840 bytes)
Uncompressed: 1.61 GB (1728704548 bytes)
Date Circulated
Date Added
08/10/2012
08/10/2012
Source Summary flac16; MSR>C>DAT>WAV>SHN w/mono audio patch from video and timing correction. Originally converted by Cousinit (Shnid=17279) 
  Archive
Source Information - Download Text | Download Zip
Grateful Dead
Oakland Auditorium, Oakland, CA
December 26, 1980

Set 1
d1t01 - Alabama Getaway -
d1t02 - The Promised Land
d1t03 - They Love Each Other
d1t04 - C C Rider
d1t05 - Althea
d1t06 - Cassidy
d1t07 - Peggy-O
d1t08 - Lost Sailor -
d1t09 - Saint Of Circumstance -
d1t10 - Deal

Set 2
d2t01 - Scarlet Begonias -
d2t02 - Fire On The Mountain
d2t03 - Samson And Delilah
d2t04 - Ship Of Fools
d2t05 - Spanish Jam tease
d3t01 - Playing In The Band -
d3t02 - Drums -
d3t03 - Space -
d3t04 - Not Fade Away -
d3t05 - Black Peter -
d3t06 - Around And Around -
d3t07 - Good Lovin'

Encore
d3t08 - U.S. Blues

SBD 1:
Shnid = 17279
Source: MSR>C>DAT>WAV>SHNC>SHN Conversion by Cousinit
Aud Patch supplies Alabama and first 23 seconds of Promised Land.Dropout during Alabama from 1:05-1:11.
Playin and Drums cut due to Reel flip.

SBD 2:
Mono from Video soundtrack used to patch Sbd 1

Audio Patches:
1) Do to unknown tape/recording problems - the soundboard 1 audio track starting with Lost Sailor till the end of the set changed speeds/pitch from being 1 second fast per minute to over 4 seconds fast per minute but at a variable rate - I tried to correct but even when changing at 2 seconds interval, it still was off.  I replaced this erratic audio with the video soundboard which consistantly matched the audience soundtrack.

2) 8 minutes into Playing in the Band, 12 minute and 05.713 seconds were missing from the soundboard 1 soundtrack - filled in using mono video audio.

    length     expanded size    cdr  WAVE problems  fmt   ratio  filename
     5:02.00       53272844 B   ---   --   -----    wav  1.0000  gd1980-12-26d1t01.wav
     4:23.59       46532012 B   ---   --   -----    wav  1.0000  gd1980-12-26d1t02.wav
     6:59.56       74043356 B   ---   --   -----    wav  1.0000  gd1980-12-26d1t03.wav
     7:18.65       77416124 B   ---   --   -----    wav  1.0000  gd1980-12-26d1t04.wav
     8:10.44       86539532 B   ---   --   -----    wav  1.0000  gd1980-12-26d1t05.wav
     5:12.16       55074476 B   ---   --   -----    wav  1.0000  gd1980-12-26d1t06.wav
     6:45.46       71550236 B   ---   --   -----    wav  1.0000  gd1980-12-26d1t07.wav
     6:15.69       66312332 B   ---   --   -----    wav  1.0000  gd1980-12-26d1t08.wav
     6:13.45       65903084 B   ---   --   -----    wav  1.0000  gd1980-12-26d1t09.wav
     7:51.60       83225564 B   ---   --   -----    wav  1.0000  gd1980-12-26d1t10.wav
     8:21.72       88545788 B   ---   --   -----    wav  1.0000  gd1980-12-26d2t01.wav
    11:19.05      119787404 B   ---   --   -----    wav  1.0000  gd1980-12-26d2t02.wav
     8:36.48       91135340 B   ---   --   -----    wav  1.0000  gd1980-12-26d2t03.wav
     8:25.47       89192588 B   ---   --   -----    wav  1.0000  gd1980-12-26d2t04.wav
     0:37.24        6583292 B   ---   --   -----    wav  1.0000  gd1980-12-26d2t05.wav
    15:14.02      161234348 B   ---   --   -----    wav  1.0000  gd1980-12-26d3t01.wav
     7:57.60       84283964 B   ---   --   -----    wav  1.0000  gd1980-12-26d3t02.wav
     3:03.23       32335340 B   ---   --   -----    wav  1.0000  gd1980-12-26d3t03.wav
     9:15.47       98012588 B   ---   --   -----    wav  1.0000  gd1980-12-26d3t04.wav
     9:05.67       96295628 B   ---   --   -----    wav  1.0000  gd1980-12-26d3t05.wav
     3:42.49       39276092 B   ---   --   -----    wav  1.0000  gd1980-12-26d3t06.wav
     8:08.58       86219660 B   ---   --   -----    wav  1.0000  gd1980-12-26d3t07.wav
     5:17.06       55932956 B   ---   --   -----    wav  1.0000  gd1980-12-26d3t08.wav
   163:19.68     1728704548 B                            1.0000  (23 files)




Show Checksums
flac-md5
3309fa1a9a1310ceb5ccf7cbaa94af6c *gd1980-12-26d1t01.flac
68fcfc7e98a4abe5f369ecd45230dc39 *gd1980-12-26d1t02.flac
35fbd06a6c97189eb47c93761ddd61c0 *gd1980-12-26d1t03.flac
f76422e61d990c2060f54a6acf35f79b *gd1980-12-26d1t04.flac
3164a526c81cb3d92d3e4eb64da43c33 *gd1980-12-26d1t05.flac
e57a5682e2bc88c7e083863f2b78bdab *gd1980-12-26d1t06.flac
1ad0f93494fa973ac13a44cd209c15b2 *gd1980-12-26d1t07.flac
448d9949132d0b97dd43227f775c44f0 *gd1980-12-26d1t08.flac
459abd641d29995dabab2503fd4ea009 *gd1980-12-26d1t09.flac
5cb38eff96276327040bc78e7e59b1ff *gd1980-12-26d1t10.flac
3bdda776c23fcca7da98acd1150afaa3 *gd1980-12-26d2t01.flac
b7af14c21e9d8ae7c8f459fdc947c223 *gd1980-12-26d2t02.flac
8dee9f7bd0c3309fadee4fdaab52e98b *gd1980-12-26d2t03.flac
5f7e5d88cf965d402eda365d1f415e93 *gd1980-12-26d2t04.flac
cc3a9fcfd91d8c05b0cafaa354596f81 *gd1980-12-26d2t05.flac
b993ab3c134ac5f25859a3e56874a8d6 *gd1980-12-26d3t01.flac
6617ae468bdd70719b72c8e2e65df0c7 *gd1980-12-26d3t02.flac
487783be0c91819f8b04436d875add74 *gd1980-12-26d3t03.flac
3a7695f9e20e9ee69b1693dc30370ae7 *gd1980-12-26d3t04.flac
7469bd37d01ddd12b5132a0d5c3191b5 *gd1980-12-26d3t05.flac
c69efe310173daaa0f0351f05bb956a2 *gd1980-12-26d3t06.flac
b4e4299e5388b946559cf2151b2930a6 *gd1980-12-26d3t07.flac
e62677607fbab7afbf11926cd883d688 *gd1980-12-26d3t08.flac
ffp
gd1980-12-26d1t01.flac:5e482b65383e206b950ffd7721cab9ff
gd1980-12-26d1t02.flac:29e1b8e0215b095fc2f28c6426dc138b
gd1980-12-26d1t03.flac:800bf09be771efae3bd43c02a7344f3f
gd1980-12-26d1t04.flac:c0f53bc470a09aa1d3a16f222da2a52f
gd1980-12-26d1t05.flac:c4aeb07adc7e0887b58d6b45383b17ee
gd1980-12-26d1t06.flac:2bbff8638e7c593b16a20dafbdea47b0
gd1980-12-26d1t07.flac:1f9fdbbdcc9aaf4546a56f285741b1c6
gd1980-12-26d1t08.flac:fba0b52e1a2441afce673aa76ea498f4
gd1980-12-26d1t09.flac:5bbab80e78513973be7df1fc5f998aa3
gd1980-12-26d1t10.flac:7d2543a577902cfe1308b686973bcc7c
gd1980-12-26d2t01.flac:27aa59ba655739bae0721b1ac671e6fc
gd1980-12-26d2t02.flac:8c03dad5d16ea355976da8f1b592818f
gd1980-12-26d2t03.flac:beda5d5e5bbba92f9ff195973dde9a85
gd1980-12-26d2t04.flac:189455c0ff718ff33f216e05a09b499c
gd1980-12-26d2t05.flac:30a90cea581e667dfb92296453b33f89
gd1980-12-26d3t01.flac:e7573be1551dd7cb8e81c590c204ad32
gd1980-12-26d3t02.flac:3de754cd16dfc2276bef5b61621e8705
gd1980-12-26d3t03.flac:9eb9e2b0d1b0f86513d6ad03c8b14b08
gd1980-12-26d3t04.flac:fdb94bf21c0f1502199a1f1a22214bcd
gd1980-12-26d3t05.flac:a44ae23e20153dde58158060eeb563da
gd1980-12-26d3t06.flac:67efc10d1a2062233f043de7dd4a5641
gd1980-12-26d3t07.flac:b827f56f211a772ebfe6029f91b174b0
gd1980-12-26d3t08.flac:5949bb968b1ec7618287ef04e3a7c4f7

Comments
Add Comment
Other Sources (comments)
Recording by Joani Walker:... (0) MSR>C>DAT>WAV>SHN w/ Aud... (0) flac16; Recording by... (0) flac16; Recording by... (0) flac16; Matrix 3... (1) DTS-Audio-CD 5.1... (1) flac24; Recorded... (0)
Date User Comment
08/14/2012 Wharfrat73 Updated .md5