Browse Collections Artists Sources   Search Dates

Add Show    List Management    Help


Phish 08/17/12
Bill Graham Civic Auditorium, San Francisco, CA
Comments Add Comment    Source Collectors    Add to Collection    Add to Want List    History
Source # 121615 Other Sources
Entered by Jason Sobel
Checksums 16bit-FFP
Disc Counts 0 / 0
Media Size Compressed: 847.13 MB (888280390 bytes)
Date Circulated
Date Added
08/18/2012
08/18/2012
Source Summary flac16; (FOB) Schoeps CCM4V'S > Lunatec V2 > Benchmark AD2K > Sound Devices 722 (24/48); Sound Devices 722 > Sound Forge 9.0 > CD Wave > flac(16); Taped & Transferred by Z-Man 
Source Information - Download Text | Download Zip
Phish
Bill Graham Civic Auditorium
San Francisco, California
8/17/2012

Source: Schoeps CCM4V'S(din)>Lunatec V2>Benchmark AD2K>
Sound Devices 722 (24/48)
FOB/DFC/KFC/ZFC/AARP 40' From Stage, 6' High
DSP: Sound Devices 722>Sound Forge 9.0>CD Wave>flac(16)
Recorded By: Z-Man
Seeded By: Z-Man

Disc I 1st Set

01 Tuning
02 AC/DC Bag >
03 Moma Dance >
04 Possum
05 Corinna
06 Sand
07 Hailey's Comet >
08 Funky Bitch >
09 Sample In A Jar
10 Roses Are Free >
11 My Friend, My Friend
12 Slave To The Traffic Light

Disc II 2nd Set

01 Tuning
02 Down With Disease >
03 Birds Of A Feather
04 Tweezer >
05 Twist >
06 Wading In The Velvet Sea >
07 Chalkdust Torture

Disc III 2nd Set Con't

01 Joy >
02 Antelope
03 Shine A Light
Encore:
04 Thanks
05 First Tube

Flac Fingerprint

phish2012-08-17d01t01.flac:b0b84104c724057656ede905bc1596d0
phish2012-08-17d01t02.flac:4ae0c30eb9c15eb5c6f3719b45f8410d
phish2012-08-17d01t03.flac:8cb7f71f9c6362a27d471bb978d16fd4
phish2012-08-17d01t04.flac:f8fa62b97a74bf43401df3f039e99f34
phish2012-08-17d01t05.flac:d7773e3d76ad40a49639e05e3e78784a
phish2012-08-17d01t06.flac:e0922a7222a0fbb135e578e996ec1882
phish2012-08-17d01t07.flac:87100ac2a68537511cb0915d5e5cc2ab
phish2012-08-17d01t08.flac:647240906dc8ba936c99e7c64a3946b9
phish2012-08-17d01t09.flac:12287c80dd5013143958d9093411e4fe
phish2012-08-17d01t10.flac:475dbefb9306e47839f29c0667306533
phish2012-08-17d01t11.flac:21982435fad9271e82bf039bbb240e0d
phish2012-08-17d01t12.flac:5a9fde680a1c7e9e4d6c52b6b8401e1a
phish2012-08-17d02t01.flac:06c15dc055d0e8dca3bda3bec34d1878
phish2012-08-17d02t02.flac:72a7e7fe4773fe9a0b7cc34bb025d393
phish2012-08-17d02t03.flac:1dcaefea3f67f75ae560288897641b4b
phish2012-08-17d02t04.flac:00267d628e55399514b5cd4d93067b34
phish2012-08-17d02t05.flac:433f1593ff0d28af0d50d2841230eca8
phish2012-08-17d02t06.flac:0b93b3f955f6ba93cf53ed887e69bcdd
phish2012-08-17d02t07.flac:dcf1128064f48b4487b4da0eb577d7bc
phish2012-08-17d03t01.flac:c5b68c80297b887a637572ad2753b83c
phish2012-08-17d03t02.flac:62ef777d6edc11e8542fcc0b359ed057
phish2012-08-17d03t03.flac:1a8b78f2be8febfa1a96d1c4d09a66b4
phish2012-08-17d03t04.flac:7e57e863c94aa3774f8db32c4271ce2b
phish2012-08-17d03t05.flac:a35e6b8aa9159670d3f91312c460a237

Shntool

    length     expanded size    cdr  WAVE problems  fmt   ratio  filename
     0:36.52        6472748 B   ---   --   ---xx   flac  0.4176  phish2012-08-17d01t01.flac
     6:07.56       64870556 B   ---   --   ---xx   flac  0.4980  phish2012-08-17d01t02.flac
     7:14.44       76661132 B   ---   --   ---xx   flac  0.5136  phish2012-08-17d01t03.flac
    10:35.39      112105772 B   ---   --   ---xx   flac  0.4820  phish2012-08-17d01t04.flac
     5:18.56       56226956 B   ---   --   ---xx   flac  0.4110  phish2012-08-17d01t05.flac
     8:18.47       87957788 B   ---   --   ---xx   flac  0.5034  phish2012-08-17d01t06.flac
     6:05.23       64440140 B   ---   --   ---xx   flac  0.5119  phish2012-08-17d01t07.flac
     6:16.23       66380540 B   ---   --   ---xx   flac  0.5438  phish2012-08-17d01t08.flac
     6:30.20       68843084 B   ---   --   ---xx   flac  0.5115  phish2012-08-17d01t09.flac
     5:51.11       61942316 B   ---   --   ---xx   flac  0.5226  phish2012-08-17d01t10.flac
     5:47.37       61297868 B   ---   --   ---xx   flac  0.5014  phish2012-08-17d01t11.flac
     9:50.13      104106620 B   ---   --   ---xx   flac  0.4630  phish2012-08-17d01t12.flac
     0:27.63        4911020 B   ---   --   ---xx   flac  0.3539  phish2012-08-17d02t01.flac
    15:48.65      167380124 B   ---   --   ---xx   flac  0.4907  phish2012-08-17d02t02.flac
     5:52.08       62111660 B   ---   --   ---xx   flac  0.5220  phish2012-08-17d02t03.flac
    14:54.47      157812188 B   ---   --   ---xx   flac  0.5163  phish2012-08-17d02t04.flac
     7:44.44       81953132 B   ---   --   ---xx   flac  0.4966  phish2012-08-17d02t05.flac
     7:19.73       77611340 B   ---   --   ---xx   flac  0.4541  phish2012-08-17d02t06.flac
     7:02.39       74532572 B   ---   --   ---xx   flac  0.5472  phish2012-08-17d02t07.flac
     5:45.57       60992108 B   ---   --   ---xx   flac  0.4811  phish2012-08-17d03t01.flac
     9:08.50       96784844 B   ---   --   ---xx   flac  0.4988  phish2012-08-17d03t02.flac
     6:11.74       65618492 B   ---   --   ---xx   flac  0.4966  phish2012-08-17d03t03.flac
     0:43.56        7716956 B   ---   --   ---xx   flac  0.3872  phish2012-08-17d03t04.flac
     8:26.47       89368988 B   ---   --   ---xx   flac  0.5502  phish2012-08-17d03t05.flac
   167:59.69     1778098944 B                            0.4996  (24 files)






Show Checksums
16bit-FFP
phish2012-08-17d01t01.flac:b0b84104c724057656ede905bc1596d0
phish2012-08-17d01t02.flac:4ae0c30eb9c15eb5c6f3719b45f8410d
phish2012-08-17d01t03.flac:8cb7f71f9c6362a27d471bb978d16fd4
phish2012-08-17d01t04.flac:f8fa62b97a74bf43401df3f039e99f34
phish2012-08-17d01t05.flac:d7773e3d76ad40a49639e05e3e78784a
phish2012-08-17d01t06.flac:e0922a7222a0fbb135e578e996ec1882
phish2012-08-17d01t07.flac:87100ac2a68537511cb0915d5e5cc2ab
phish2012-08-17d01t08.flac:647240906dc8ba936c99e7c64a3946b9
phish2012-08-17d01t09.flac:12287c80dd5013143958d9093411e4fe
phish2012-08-17d01t10.flac:475dbefb9306e47839f29c0667306533
phish2012-08-17d01t11.flac:21982435fad9271e82bf039bbb240e0d
phish2012-08-17d01t12.flac:5a9fde680a1c7e9e4d6c52b6b8401e1a
phish2012-08-17d02t01.flac:06c15dc055d0e8dca3bda3bec34d1878
phish2012-08-17d02t02.flac:72a7e7fe4773fe9a0b7cc34bb025d393
phish2012-08-17d02t03.flac:1dcaefea3f67f75ae560288897641b4b
phish2012-08-17d02t04.flac:00267d628e55399514b5cd4d93067b34
phish2012-08-17d02t05.flac:433f1593ff0d28af0d50d2841230eca8
phish2012-08-17d02t06.flac:0b93b3f955f6ba93cf53ed887e69bcdd
phish2012-08-17d02t07.flac:dcf1128064f48b4487b4da0eb577d7bc
phish2012-08-17d03t01.flac:c5b68c80297b887a637572ad2753b83c
phish2012-08-17d03t02.flac:62ef777d6edc11e8542fcc0b359ed057
phish2012-08-17d03t03.flac:1a8b78f2be8febfa1a96d1c4d09a66b4
phish2012-08-17d03t04.flac:7e57e863c94aa3774f8db32c4271ce2b
phish2012-08-17d03t05.flac:a35e6b8aa9159670d3f91312c460a237

Comments
Add Comment
Other Sources (comments)
flac16; (FOB)... (0) flac16; (FOB)... (0) flac16; AKG C414-XLS... (0) flac24; (FOB)... (0) flac16; (FOB)... (0) flac24; (FOB)... (0) flac16; (FOB)... (0) flac24; (FOB)... (0)
Date User Comment