Browse Collections Artists Sources   Search Dates

Add Show    List Management    Help


Phish 08/18/12
Bill Graham Civic Auditorium, San Francisco, CA
Comments Add Comment    Source Collectors    Add to Collection    Add to Want List    History
Source # 121628 Other Sources
Entered by Jason Sobel
Checksums 16bit-FFP
Disc Counts 0 / 0
Media Size Compressed: 977.39 MB (1024867964 bytes)
Date Circulated
Date Added
08/19/2012
08/19/2012
Source Summary flac16; (FOB) Schoeps CCM4V'S > Lunatec V2 > Benchmark AD2K > Sound Devices 722 (24/48); Sound Devices 722 > Sound Forge 9.0 > CD Wave > flac(16); Taped & Transferred by Z-Man 
Source Information - Download Text | Download Zip
Phish
Bill Graham Civic Auditorium
San Francisco, California
8/18/2012

Source: Schoeps CCM4V'S(din)>Lunatec V2>Benchmark AD2K>
Sound Devices 722 (24/48)
FOB/DFC/KFC/ZFC/AARP 40' From Stage, 6' High
DSP: Sound Devices 722>Sound Forge 9.0>CD Wave>flac(16)
Recorded By: Z-Man
Seeded By: Z-Man

Disc I 1st Set

01 Runaway Jim
02 Wolfman's Brother
03 Nellie Kane
04 Beauty Of A Broken Heart
05 Ocelot
06 Maze
07 *I Didn't Known >
08 46 Days
09 Tube
10 When The Circus Comes To Town
11 Sugar Shack

Disc II 1st Set Con't

01 Split Open And Melt
02 Cavern
2nd Set:
03 Golden Age >
04 Piper >
05 Mike's Song >
06 Simple >
07 Jam >
08 Backwards Down The Number Line >
09 Carini >
10 Wilson >
11 Weekapauge Groove

Disc III 2nd Set Con't

01 The Horse >
02 Silent In The Morning >
03 2001 >
04 Fluffhead >
05 Fluffhead's Travels >
06 Fluffhead >
07 Loving Cup
Encore:
08 The Show Of Light >
09 Character Zero

* With John Fishman Playing Henrietta

Flac Fingerprint

phish2012-08-18d01t01.flac:24a793275f87cac338968386594574d5
phish2012-08-18d01t02.flac:79699c40c11dc7f2f5824dd872a55364
phish2012-08-18d01t03.flac:0bf9fafbaf31776b9b562566d1a74be5
phish2012-08-18d01t04.flac:3b7b6fb6e709f983037860013c311937
phish2012-08-18d01t05.flac:ebebd6925af74af3d16e91a1a175041e
phish2012-08-18d01t06.flac:09a42c4be6b265cf78bfbc22861a9c33
phish2012-08-18d01t07.flac:bb42bf3abbb28a32d91c05207cb99592
phish2012-08-18d01t08.flac:7a0fe012221b03f24308a02cfae9521f
phish2012-08-18d01t09.flac:980e56ebe0460f8a057c15411c0e5fa0
phish2012-08-18d01t10.flac:b2018ddfb5aef50e4f53847d7974a161
phish2012-08-18d01t11.flac:e3b1ae11591453ccebddc20032b39cad
phish2012-08-18d02t01.flac:0466016401e1eb74cff098985aac2016
phish2012-08-18d02t02.flac:031a7e572e51169abe7f9fc2f027dfbc
phish2012-08-18d02t03.flac:c68ba820b1266a6dbf181132f0a1ea0b
phish2012-08-18d02t04.flac:eae186f52eef47a15b7b5d7964c4eedd
phish2012-08-18d02t05.flac:1f1d650d0ce77e81f13cf76a13eabbc3
phish2012-08-18d02t06.flac:86b985d16e9a8658257eb7bc033bf09c
phish2012-08-18d02t07.flac:77ce0c32ad134a71b0894e39b8c0b9c9
phish2012-08-18d02t08.flac:32ad5ea16616462d1474f7dedefc5a82
phish2012-08-18d02t09.flac:d5239a2355b628a53874b0fd7c19536c
phish2012-08-18d02t10.flac:23c89dc9acb419d59bb3bcf5ac6e1aba
phish2012-08-18d02t11.flac:20a16958db12357b9c8d55467c5e3479
phish2012-08-18d03t01.flac:288cbb2e5b02350e08ee435ca14bb34a
phish2012-08-18d03t02.flac:55259ae4a7b55209135e63709372a551
phish2012-08-18d03t03.flac:0181b2804d7bc85648382b6c530b76ac
phish2012-08-18d03t04.flac:8956d42ce35598eacc4df481ad1560b9
phish2012-08-18d03t05.flac:b8ea00ff8b09286eee09517b6951c1e2
phish2012-08-18d03t06.flac:82b46c491be4fc074fcc2ca880d65cc0
phish2012-08-18d03t07.flac:0882c27e307c54c82ebf0c19106cdf90
phish2012-08-18d03t08.flac:002614701ca43398e9e7e85ef35d9636
phish2012-08-18d03t09.flac:e1d727e11042672e22ec1ec0684a9a99

Shntool

    length     expanded size    cdr  WAVE problems  fmt   ratio  filename
     7:48.34       82635212 B   ---   --   ---xx   flac  0.4967  phish2012-08-18d01t01.flac
    11:35.65      122750924 B   ---   --   ---xx   flac  0.4905  phish2012-08-18d01t02.flac
     3:22.04       35642252 B   ---   --   ---xx   flac  0.4717  phish2012-08-18d01t03.flac
     4:58.17       52607228 B   ---   --   ---xx   flac  0.5109  phish2012-08-18d01t04.flac
     9:34.38      101343020 B   ---   --   ---xx   flac  0.4845  phish2012-08-18d01t05.flac
     8:41.27       91967948 B   ---   --   ---xx   flac  0.5174  phish2012-08-18d01t06.flac
     3:38.22       38506988 B   ---   --   ---xx   flac  0.4469  phish2012-08-18d01t07.flac
     7:23.51       78265196 B   ---   --   ---xx   flac  0.5136  phish2012-08-18d01t08.flac
     4:38.55       49168604 B   ---   --   ---xx   flac  0.4935  phish2012-08-18d01t09.flac
     5:23.73       57148940 B   ---   --   ---xx   flac  0.4210  phish2012-08-18d01t10.flac
     5:47.39       61302412 B   -b-   --   ---xx   flac  0.4882  phish2012-08-18d01t11.flac
    11:44.18      124227980 B   ---   --   ---xx   flac  0.5117  phish2012-08-18d02t01.flac
     5:10.02       54688748 B   ---   --   ---xx   flac  0.5217  phish2012-08-18d02t02.flac
     8:18.10       87870764 B   ---   --   ---xx   flac  0.5017  phish2012-08-18d02t03.flac
     6:01.06       63694556 B   ---   --   ---xx   flac  0.5233  phish2012-08-18d02t04.flac
     8:28.13       89641820 B   ---   --   ---xx   flac  0.5277  phish2012-08-18d02t05.flac
     7:19.02       77444348 B   ---   --   ---xx   flac  0.4884  phish2012-08-18d02t06.flac
     5:22.50       56918444 B   ---   --   ---xx   flac  0.3754  phish2012-08-18d02t07.flac
     7:20.70       77780684 B   ---   --   ---xx   flac  0.5022  phish2012-08-18d02t08.flac
     5:16.71       55909436 B   ---   --   ---xx   flac  0.5477  phish2012-08-18d02t09.flac
     4:35.72       48679388 B   ---   --   ---xx   flac  0.4987  phish2012-08-18d02t10.flac
     4:57.39       52481660 B   -b-   --   ---xx   flac  0.5043  phish2012-08-18d02t11.flac
     1:22.55       14594204 B   ---   --   ---xx   flac  0.3468  phish2012-08-18d03t01.flac
     4:51.13       51363020 B   ---   --   ---xx   flac  0.4691  phish2012-08-18d03t02.flac
     6:56.08       73401260 B   ---   --   ---xx   flac  0.4881  phish2012-08-18d03t03.flac
    11:05.51      117425996 B   ---   --   ---xx   flac  0.4819  phish2012-08-18d03t04.flac
     1:10.06       12362156 B   ---   --   ---xx   flac  0.5344  phish2012-08-18d03t05.flac
     2:58.12       31427468 B   ---   --   ---xx   flac  0.5317  phish2012-08-18d03t06.flac
     7:11.22       76080188 B   ---   --   ---xx   flac  0.5148  phish2012-08-18d03t07.flac
     5:36.00       59270444 B   ---   --   ---xx   flac  0.4685  phish2012-08-18d03t08.flac
     7:16.27       76973964 B   -b-   --   ---xx   flac  0.5109  phish2012-08-18d03t09.flac
   195:54.72     2073575252 B                            0.4942  (31 files)











Show Checksums
16bit-FFP
phish2012-08-18d01t01.flac:24a793275f87cac338968386594574d5
phish2012-08-18d01t02.flac:79699c40c11dc7f2f5824dd872a55364
phish2012-08-18d01t03.flac:0bf9fafbaf31776b9b562566d1a74be5
phish2012-08-18d01t04.flac:3b7b6fb6e709f983037860013c311937
phish2012-08-18d01t05.flac:ebebd6925af74af3d16e91a1a175041e
phish2012-08-18d01t06.flac:09a42c4be6b265cf78bfbc22861a9c33
phish2012-08-18d01t07.flac:bb42bf3abbb28a32d91c05207cb99592
phish2012-08-18d01t08.flac:7a0fe012221b03f24308a02cfae9521f
phish2012-08-18d01t09.flac:980e56ebe0460f8a057c15411c0e5fa0
phish2012-08-18d01t10.flac:b2018ddfb5aef50e4f53847d7974a161
phish2012-08-18d01t11.flac:e3b1ae11591453ccebddc20032b39cad
phish2012-08-18d02t01.flac:0466016401e1eb74cff098985aac2016
phish2012-08-18d02t02.flac:031a7e572e51169abe7f9fc2f027dfbc
phish2012-08-18d02t03.flac:c68ba820b1266a6dbf181132f0a1ea0b
phish2012-08-18d02t04.flac:eae186f52eef47a15b7b5d7964c4eedd
phish2012-08-18d02t05.flac:1f1d650d0ce77e81f13cf76a13eabbc3
phish2012-08-18d02t06.flac:86b985d16e9a8658257eb7bc033bf09c
phish2012-08-18d02t07.flac:77ce0c32ad134a71b0894e39b8c0b9c9
phish2012-08-18d02t08.flac:32ad5ea16616462d1474f7dedefc5a82
phish2012-08-18d02t09.flac:d5239a2355b628a53874b0fd7c19536c
phish2012-08-18d02t10.flac:23c89dc9acb419d59bb3bcf5ac6e1aba
phish2012-08-18d02t11.flac:20a16958db12357b9c8d55467c5e3479
phish2012-08-18d03t01.flac:288cbb2e5b02350e08ee435ca14bb34a
phish2012-08-18d03t02.flac:55259ae4a7b55209135e63709372a551
phish2012-08-18d03t03.flac:0181b2804d7bc85648382b6c530b76ac
phish2012-08-18d03t04.flac:8956d42ce35598eacc4df481ad1560b9
phish2012-08-18d03t05.flac:b8ea00ff8b09286eee09517b6951c1e2
phish2012-08-18d03t06.flac:82b46c491be4fc074fcc2ca880d65cc0
phish2012-08-18d03t07.flac:0882c27e307c54c82ebf0c19106cdf90
phish2012-08-18d03t08.flac:002614701ca43398e9e7e85ef35d9636
phish2012-08-18d03t09.flac:e1d727e11042672e22ec1ec0684a9a99

Comments
Add Comment
Other Sources (comments)
flac16; (FOB)... (0) flac24; (FOB)... (0) flac16; (FOB)... (0) flac16; (FOB)... (0)
Date User Comment