Browse Collections Artists Sources   Search Dates

Add Show    List Management    Help


Phish 08/19/12
Bill Graham Civic Auditorium, San Francisco, CA
Comments Add Comment    Source Collectors    Add to Collection    Add to Want List    History
Source # 121650 Other Sources
Entered by Jason Sobel
Checksums 16bit-FFP
Disc Counts 0 / 0
Media Size Compressed: 971.25 MB (1018433173 bytes)
Date Circulated
Date Added
08/20/2012
08/20/2012
Source Summary flac16; (FOB) Schoeps CCM4V'S > Lunatec V2 > Benchmark AD2K > Sound Devices 722 (24/48); Sound Devices 722 > Sound Forge 9.0 > CD Wave > flac(16); Taped & Transferred by Z-Man 
Source Information - Download Text | Download Zip
Phish
Bill Graham Civic Auditorium
San Francisco, California
8/19/2012

Source: Schoeps CCM4V'S(din)>Lunatec V2>Benchmark AD2K>
Sound Devices 722 (24/48)
FOB/DFC/KFC/ZFC/AARP 40' From Stage, 6' High
DSP: Sound Devices 722>Sound Forge 9.0>CD Wave>flac(16)
Recorded By: Z-Man
Seeded By: Z-Man

Disc I 1st Set

01 Tuning
02 Crowd Control
03 Party Time
04 Axilla
05 Reba
06 Free >
07 Mound >
08 Walk Away >
09 NICU

Disc II 1st Set Con't

01 Back On The Train
02 Gotta Jibboo >
03 Roggae
04 David Bowie

Disc III 2nd Set

01 Eleanor Rigby Tuning
02 Crosseyed And Painless >
03 Light >
04 Sneakin' Sally Through The Alley >
05 Crosseyed And Painless >
06 Theme From The Bottom >
07 Rocky Top

Disc IV 2nd Set Con't

01 Boogie On Raggae Woman >
02 Meat Stick
03 Bug
04 YEM
Encore:
05 Thanks
06 Ride Captain Ride >
07 Tweezer Reprise

Flac Fingerprint

phish2012-08-19d01t01.flac:c706d779b00dbd3d0521966281b7e34a
phish2012-08-19d01t02.flac:5e4b8e0b3acff4d62bfc6da6127c6f54
phish2012-08-19d01t03.flac:9180e205c927477997e21b1a6651a156
phish2012-08-19d01t04.flac:b6c6c3b7ba21ecaf94611e01536874d0
phish2012-08-19d01t05.flac:d8b057dcfcdc3e870bef3e057d00d372
phish2012-08-19d01t06.flac:b4ca3cd7a7ea992cb1429bb20f9099d8
phish2012-08-19d01t07.flac:a12ea84a5f277c40cc9f52afc2a1a0bf
phish2012-08-19d01t08.flac:bdadfb6d4ce4c2b49323b8b35809cd8c
phish2012-08-19d01t09.flac:5f95137a22d1c4d562404f2d98c1569e
phish2012-08-19d02t01.flac:935ca4e1fe5e8434c5aba475bdf88fb2
phish2012-08-19d02t02.flac:34977c11a28aab1bcb9d759633e26302
phish2012-08-19d02t03.flac:f53e63edc9f2e71073de903e339d3251
phish2012-08-19d02t04.flac:e3e1e6da8970e4967f7d2d28fbb79464
phish2012-08-19d03t01.flac:c3b7e515490b1a65808bfda39f5c1c83
phish2012-08-19d03t02.flac:96e954ec2dd2eee8bb5241ccdcd480e5
phish2012-08-19d03t03.flac:c287e03b54d11f42736da2e83ab92ae7
phish2012-08-19d03t04.flac:9132ae4b0880001f34ba1cc0b45ea8d1
phish2012-08-19d03t05.flac:c96de4e0ace52946bbee101c1182729a
phish2012-08-19d03t06.flac:0486c2541ff67951c83171b95bfc14f8
phish2012-08-19d03t07.flac:a207ffba7a6065eb6ba5381b12391c6a
phish2012-08-19d04t01.flac:68cddafaa870aca76889c0c277285952
phish2012-08-19d04t02.flac:ffa73fe4d5f9cd5bbf60f9eb06aacf02
phish2012-08-19d04t03.flac:be8298870ef1978bab38c26afd6b88bc
phish2012-08-19d04t04.flac:08c0944c3e551932a533bdd1e02d89f3
phish2012-08-19d04t05.flac:742c8efbf556f2de84e7ec054b574ad6
phish2012-08-19d04t06.flac:51d9cb44ed3304352b08d822c3648213
phish2012-08-19d04t07.flac:0610bb3c0da28ad9a35ca9ddd72fa150

Shntool

    length     expanded size    cdr  WAVE problems  fmt   ratio  filename
     0:34.09        6018812 B   ---   --   ---xx   flac  0.3560  phish2012-08-19d01t01.flac
     4:24.39       46661372 B   ---   --   ---xx   flac  0.5189  phish2012-08-19d01t02.flac
     7:05.52       75092348 B   ---   --   ---xx   flac  0.5006  phish2012-08-19d01t03.flac
     3:29.47       36978188 B   ---   --   ---xx   flac  0.5484  phish2012-08-19d01t04.flac
    13:39.06      144485756 B   ---   --   ---xx   flac  0.4679  phish2012-08-19d01t05.flac
     6:57.54       73685852 B   ---   --   ---xx   flac  0.5074  phish2012-08-19d01t06.flac
     5:54.54       62572652 B   ---   --   ---xx   flac  0.5191  phish2012-08-19d01t07.flac
     6:22.62       67530668 B   ---   --   ---xx   flac  0.5621  phish2012-08-19d01t08.flac
     5:18.51       56215196 B   ---   --   ---xx   flac  0.5008  phish2012-08-19d01t09.flac
     8:56.43       94651580 B   ---   --   ---xx   flac  0.5019  phish2012-08-19d02t01.flac
     9:38.63      102107420 B   ---   --   ---xx   flac  0.4976  phish2012-08-19d02t02.flac
     8:53.12       94049468 B   ---   --   ---xx   flac  0.4723  phish2012-08-19d02t03.flac
    11:47.53      124839500 B   ---   --   ---xx   flac  0.5026  phish2012-08-19d02t04.flac
     1:02.36       11021516 B   ---   --   ---xx   flac  0.3338  phish2012-08-19d03t01.flac
    16:32.13      175019420 B   ---   --   ---xx   flac  0.4695  phish2012-08-19d03t02.flac
    14:47.64      156617372 B   ---   --   ---xx   flac  0.4767  phish2012-08-19d03t03.flac
     4:20.21       45913436 B   ---   --   ---xx   flac  0.4848  phish2012-08-19d03t04.flac
     9:06.37       96401468 B   ---   --   ---xx   flac  0.4862  phish2012-08-19d03t05.flac
     7:54.01       83615996 B   ---   --   ---xx   flac  0.4736  phish2012-08-19d03t06.flac
     2:34.39       27257372 B   ---   --   ---xx   flac  0.5280  phish2012-08-19d03t07.flac
     5:07.38       54244220 B   ---   --   ---xx   flac  0.4921  phish2012-08-19d04t01.flac
     7:03.20       74664284 B   ---   --   ---xx   flac  0.4805  phish2012-08-19d04t02.flac
     7:09.28       75741500 B   ---   --   ---xx   flac  0.4700  phish2012-08-19d04t03.flac
    19:36.65      207599324 B   ---   --   ---xx   flac  0.4439  phish2012-08-19d04t04.flac
     0:20.12        3556268 B   ---   --   ---xx   flac  0.3974  phish2012-08-19d04t05.flac
     5:01.10       53119964 B   ---   --   ---xx   flac  0.5087  phish2012-08-19d04t06.flac
     4:02.37       42775868 B   ---   --   ---xx   flac  0.5323  phish2012-08-19d04t07.flac
   197:41.66     2092436820 B                            0.4867  (27 files)






Show Checksums
16bit-FFP
phish2012-08-19d01t01.flac:c706d779b00dbd3d0521966281b7e34a
phish2012-08-19d01t02.flac:5e4b8e0b3acff4d62bfc6da6127c6f54
phish2012-08-19d01t03.flac:9180e205c927477997e21b1a6651a156
phish2012-08-19d01t04.flac:b6c6c3b7ba21ecaf94611e01536874d0
phish2012-08-19d01t05.flac:d8b057dcfcdc3e870bef3e057d00d372
phish2012-08-19d01t06.flac:b4ca3cd7a7ea992cb1429bb20f9099d8
phish2012-08-19d01t07.flac:a12ea84a5f277c40cc9f52afc2a1a0bf
phish2012-08-19d01t08.flac:bdadfb6d4ce4c2b49323b8b35809cd8c
phish2012-08-19d01t09.flac:5f95137a22d1c4d562404f2d98c1569e
phish2012-08-19d02t01.flac:935ca4e1fe5e8434c5aba475bdf88fb2
phish2012-08-19d02t02.flac:34977c11a28aab1bcb9d759633e26302
phish2012-08-19d02t03.flac:f53e63edc9f2e71073de903e339d3251
phish2012-08-19d02t04.flac:e3e1e6da8970e4967f7d2d28fbb79464
phish2012-08-19d03t01.flac:c3b7e515490b1a65808bfda39f5c1c83
phish2012-08-19d03t02.flac:96e954ec2dd2eee8bb5241ccdcd480e5
phish2012-08-19d03t03.flac:c287e03b54d11f42736da2e83ab92ae7
phish2012-08-19d03t04.flac:9132ae4b0880001f34ba1cc0b45ea8d1
phish2012-08-19d03t05.flac:c96de4e0ace52946bbee101c1182729a
phish2012-08-19d03t06.flac:0486c2541ff67951c83171b95bfc14f8
phish2012-08-19d03t07.flac:a207ffba7a6065eb6ba5381b12391c6a
phish2012-08-19d04t01.flac:68cddafaa870aca76889c0c277285952
phish2012-08-19d04t02.flac:ffa73fe4d5f9cd5bbf60f9eb06aacf02
phish2012-08-19d04t03.flac:be8298870ef1978bab38c26afd6b88bc
phish2012-08-19d04t04.flac:08c0944c3e551932a533bdd1e02d89f3
phish2012-08-19d04t05.flac:742c8efbf556f2de84e7ec054b574ad6
phish2012-08-19d04t06.flac:51d9cb44ed3304352b08d822c3648213
phish2012-08-19d04t07.flac:0610bb3c0da28ad9a35ca9ddd72fa150

Comments
Add Comment
Other Sources (comments)
flac16; (FOB)... (0) flac16; AKG C414xls... (0) flac24; (FOB)... (0) flac16; (FOB)... (0) flac16; (FOB)... (0) flac24; (FOB)... (0) flac16; (FOB)... (0)
Date User Comment