Browse Collections Artists Sources   Search Dates

Add Show    List Management    Help


Phish 08/31/12
Dick's Sporting Goods Park, Commerce City, CO
Comments Add Comment    Source Collectors    Add to Collection    Add to Want List    History
Source # 121797 Other Sources
Entered by Jason Sobel
Checksums 16bit-FFP
Disc Counts 0 / 0
Media Size Compressed: 738.1 MB (773957582 bytes)
Date Circulated
Date Added
09/01/2012
09/01/2012
Source Summary flac16; (FOB) Schoeps CCM4V'S > Lunatec V2 > Benchmark AD2K > Sound Devices 722 (24/48); Sound Devices 722 > Sound Forge 9.0 > CD Wave > flac(16); Taped & Transferred by Z-Man 
Source Information - Download Text | Download Zip
Phish
Dick's Sporting Goods Park
Commerce City, Colorado
8/31/2012

Source: Schoeps CCM4V'S(din)>Lunatec V2>Benchmark AD2K>
Sound Devices 722 (24/48)
FOB/DFC/KFC/ZFC/AARP 60' From Stage, 6 1/2' High
DSP: Sound Devices 722>Sound Forge 9.0>CD Wave>flac(16)
Recorded By: Z-Man
Seeded By: Z-Man

Disc I 1st Set

01 Tuning
02 First Tube
03 Uncle Pen
04 Carrini >
05 Kill Devil Falls
06 You Enjoy Myself

Disc II 1st Set Con't

01 Ocelot
02 Undermind

Disc III 2nd Set

01 Banter
02 Runaway Jim >
03 Jam >
04 Farmhouse >
05 Jam >
06 Alaska
07 Chalkdust Torture >
08 Jam
09 Emotional Rescue
10 Fuck Your Face
Encore:
11 Thanks
12 Grind
13 Meat Stick

Flac Fingerprint

phish2012-08-31d01t01.flac:edea596d1bb54be844a0cf4e0bab31ae
phish2012-08-31d01t02.flac:1acbe9e5ff449895579146380080d05d
phish2012-08-31d01t03.flac:cc6250c954be4c4804967baf21f57fca
phish2012-08-31d01t04.flac:becb474ed7fed135eab3fb47701c13d2
phish2012-08-31d01t05.flac:35e7a65e5186a34daa9a79e4fe01b882
phish2012-08-31d01t06.flac:c7eb4d7a95b20fb7249ab3269a834c91
phish2012-08-31d02t01.flac:0ef2f5aae42e787e9e2131b2a24fe670
phish2012-08-31d02t02.flac:13c01f1351fd0dcfb01d9f816e6c07eb
phish2012-08-31d03t01.flac:47cb5988f28f61bb2fdda359d60c65ee
phish2012-08-31d03t02.flac:5a6083cd7a34714dafe55b9d1a9e5816
phish2012-08-31d03t03.flac:8752a15017ca558a7499140a0f2e3f61
phish2012-08-31d03t04.flac:66abdeb7dcba5e2e9c9b7b485ead7de9
phish2012-08-31d03t05.flac:7532aa05e91e787098038fcbf9c573cf
phish2012-08-31d03t06.flac:bb8df28fc6ff621654416a6e530b70dd
phish2012-08-31d03t07.flac:2cd5435b877ad52bc09c0f439b02a062
phish2012-08-31d03t08.flac:005a501361666fef0a1dab94d1bf574a
phish2012-08-31d03t09.flac:656c3bd2beb90773b163bf8a0cf4f575
phish2012-08-31d03t10.flac:39599a40739bf2af10eb63c1d7035234
phish2012-08-31d03t11.flac:82eb3c3db331fb8ea83721572c19c854
phish2012-08-31d03t12.flac:1b5a402631a33463c3a371defd732a8c
phish2012-08-31d03t13.flac:c820ed5609695517bad3ec97a58f39e0

Shntool

    length     expanded size    cdr  WAVE problems  fmt   ratio  filename
     0:31.42        5567228 B   ---   --   ---xx   flac  0.4059  phish2012-08-31d01t01.flac
     9:02.69       95771132 B   ---   --   ---xx   flac  0.5032  phish2012-08-31d01t02.flac
     4:36.64       48836972 B   ---   --   ---xx   flac  0.4359  phish2012-08-31d01t03.flac
    13:56.44      147573932 B   ---   --   ---xx   flac  0.4716  phish2012-08-31d01t04.flac
     9:24.14       99522572 B   ---   --   ---xx   flac  0.4738  phish2012-08-31d01t05.flac
    18:40.25      197626844 B   ---   --   ---xx   flac  0.4396  phish2012-08-31d01t06.flac
    10:53.26      115250396 B   ---   --   ---xx   flac  0.4449  phish2012-08-31d02t01.flac
    15:46.64      167024972 B   ---   --   ---xx   flac  0.4466  phish2012-08-31d02t02.flac
     0:42.60        7549964 B   ---   --   ---xx   flac  0.3567  phish2012-08-31d03t01.flac
     6:23.21       67610636 B   ---   --   ---xx   flac  0.4608  phish2012-08-31d03t02.flac
    12:49.19      135696332 B   ---   --   ---xx   flac  0.4553  phish2012-08-31d03t03.flac
     6:19.43       66956780 B   ---   --   ---xx   flac  0.4528  phish2012-08-31d03t04.flac
     4:34.53       48458300 B   ---   --   ---xx   flac  0.3374  phish2012-08-31d03t05.flac
     9:50.13      104106620 B   ---   --   ---xx   flac  0.4668  phish2012-08-31d03t06.flac
     6:58.67       73892828 B   ---   --   ---xx   flac  0.4990  phish2012-08-31d03t07.flac
    11:29.41      121636076 B   ---   --   ---xx   flac  0.4524  phish2012-08-31d03t08.flac
     5:59.00       63327644 B   ---   --   ---xx   flac  0.4491  phish2012-08-31d03t09.flac
     3:13.32       34120508 B   ---   --   ---xx   flac  0.4907  phish2012-08-31d03t10.flac
     0:27.39        4854572 B   ---   --   ---xx   flac  0.3496  phish2012-08-31d03t11.flac
     1:32.48       16341740 B   ---   --   ---xx   flac  0.3793  phish2012-08-31d03t12.flac
     7:28.13       79057820 B   ---   --   ---xx   flac  0.4661  phish2012-08-31d03t13.flac
   160:41.47     1700783868 B                            0.4551  (21 files)






Show Checksums
16bit-FFP
phish2012-08-31d01t01.flac:edea596d1bb54be844a0cf4e0bab31ae
phish2012-08-31d01t02.flac:1acbe9e5ff449895579146380080d05d
phish2012-08-31d01t03.flac:cc6250c954be4c4804967baf21f57fca
phish2012-08-31d01t04.flac:becb474ed7fed135eab3fb47701c13d2
phish2012-08-31d01t05.flac:35e7a65e5186a34daa9a79e4fe01b882
phish2012-08-31d01t06.flac:c7eb4d7a95b20fb7249ab3269a834c91
phish2012-08-31d02t01.flac:0ef2f5aae42e787e9e2131b2a24fe670
phish2012-08-31d02t02.flac:13c01f1351fd0dcfb01d9f816e6c07eb
phish2012-08-31d03t01.flac:47cb5988f28f61bb2fdda359d60c65ee
phish2012-08-31d03t02.flac:5a6083cd7a34714dafe55b9d1a9e5816
phish2012-08-31d03t03.flac:8752a15017ca558a7499140a0f2e3f61
phish2012-08-31d03t04.flac:66abdeb7dcba5e2e9c9b7b485ead7de9
phish2012-08-31d03t05.flac:7532aa05e91e787098038fcbf9c573cf
phish2012-08-31d03t06.flac:bb8df28fc6ff621654416a6e530b70dd
phish2012-08-31d03t07.flac:2cd5435b877ad52bc09c0f439b02a062
phish2012-08-31d03t08.flac:005a501361666fef0a1dab94d1bf574a
phish2012-08-31d03t09.flac:656c3bd2beb90773b163bf8a0cf4f575
phish2012-08-31d03t10.flac:39599a40739bf2af10eb63c1d7035234
phish2012-08-31d03t11.flac:82eb3c3db331fb8ea83721572c19c854
phish2012-08-31d03t12.flac:1b5a402631a33463c3a371defd732a8c
phish2012-08-31d03t13.flac:c820ed5609695517bad3ec97a58f39e0

Comments
Add Comment
Other Sources (comments)
flac16; (FOB)... (0) flac16; (FOB) DPA... (0) flac16; AKG C414xls... (0) flac16; (FOB) DPA... (0) flac16; (FOB)... (0) flac16; (FOB) Busman... (0) flac24; (FOB)... (0) flac16; (FOB)... (0) flac16; (FOB)... (0) flac24; (FOB)... (0) flac16; (FOB)... (0) flac24; (FOB)... (0) flac16; (FOB) Studio... (0) flac16; (FOB) Milab... (0) flac16; (FOB)... (0) flac16; (FOB) DPA... (0) flac24; (FOB) DPA... (0) flac16; (FOB) DPA... (0) flac24; (FOB) DPA... (0) flac16; (FOB) DPA... (0) flac24; (FOB) DPA... (0)
Date User Comment