Browse Collections Artists Sources   Search Dates

Add Show    List Management    Help


Phish 09/01/12
Dick's Sporting Goods Park, Commerce City, CO
Comments Add Comment    Source Collectors    Add to Collection    Add to Want List    History
Source # 121813 Other Sources
Entered by Jason Sobel
Checksums 16bit-FFP
Disc Counts 0 / 0
Media Size Compressed: 895.77 MB (939284024 bytes)
Date Circulated
Date Added
09/02/2012
09/02/2012
Source Summary flac16; (FOB) Schoeps CCM4V'S > Lunatec V2 > Benchmark AD2K > Sound Devices 722 (24/48); Sound Devices 722 > Sound Forge 9.0 > CD Wave > flac(16); Taped & Transferred by Z-Man 
Source Information - Download Text | Download Zip
Phish
Dick's Sporting Goods Park
Commerce City, Colorado
9/1/2012

Source: Schoeps CCM4V'S(din)>Lunatec V2>Benchmark AD2K>
Sound Devices 722 (24/48)
FOB/DFC/KFC/ZFC/AARP 60' From Stage, 6 1/2' High
DSP: Sound Devices 722>Sound Forge 9.0>CD Wave>flac(16)
Recorded By: Z-Man
Seeded By: Z-Man

Disc I 1st Set

01 Antelope
02 Backwards Down The Number Line >
03 Tweezer >
04 Fluffhead >
05 Fluffhead's Travels >
06 Fluffhead >
07 Roses Are Free >
08 Funky Bitch
09 Moma Dance >
10 When The Circus Comes To Town

Disc II 1st Set Con't

01 Theme From The Bottom >
02 Golgi Apparatus
03 Stealing Time From The Faulty Plan
2nd Set:
04 Golden Age >
05 Prince Caspian >
06 Light >
07 Jam

Disc III 2nd Set Con't

01 Boogie On Raggae Woman >
02 The Wedge
03 The Horse >
04 Silent In The Morning
05 Mike's Song >
06 No Quarter >
07 Weekapaug Groove
Encore:
08 Thanks
09 Sleeping Monkey >
10 Tweezer Reprise

Flac Fingerprint

phish2012-09-01d01t01.flac:3664f3aaa7e04f9f8e425e960472cee6
phish2012-09-01d01t02.flac:754d4e26098c20814598178642a0fdb7
phish2012-09-01d01t03.flac:483d9540a25b69168b1d03df8b33cb5d
phish2012-09-01d01t04.flac:fee29f6bc3d7822e84308446fa343bc5
phish2012-09-01d01t05.flac:12b4c29d8a70dc39e8941237feee356f
phish2012-09-01d01t06.flac:0280d041cea636cd3ec32c39b4c65352
phish2012-09-01d01t07.flac:e6a0e1b46758bc6e8a11ac909f89e56f
phish2012-09-01d01t08.flac:dedf3964db5d0a4e8d4549e0919491ad
phish2012-09-01d01t09.flac:87bf1c2b8310a04c18a1a3bad798bae6
phish2012-09-01d01t10.flac:4385a863a7df23b77935fca5aa22cdfa
phish2012-09-01d02t01.flac:5e871186973b6d2f7260c21e8abb7ea3
phish2012-09-01d02t02.flac:8236256845ee5cccc7aaee231323c078
phish2012-09-01d02t03.flac:234e7afeed996884a6d28785a018a65b
phish2012-09-01d02t04.flac:9150ac63475b2f7f5d4bc055f7d9cca3
phish2012-09-01d02t05.flac:d4640365aa63f79aa922de4cfb0030e0
phish2012-09-01d02t06.flac:4c27df71ed80c9019ca035ca7a185088
phish2012-09-01d02t07.flac:ff03a20d8b1b03742566db0af78525a7
phish2012-09-01d03t01.flac:23f887f14c2d05ce8b4de9190867085c
phish2012-09-01d03t02.flac:07a39cd685f5054e04a58d0fdab3b9de
phish2012-09-01d03t03.flac:9336b0f199fe7e9c0290cf5c1a9513ed
phish2012-09-01d03t04.flac:93b88abd22f2fe319ddcdf0b5b2bd8ab
phish2012-09-01d03t05.flac:1a8ff21618ed0e2dc8e3052f4b69048a
phish2012-09-01d03t06.flac:6e4ef823eac04196eb4b8d070b0b83e2
phish2012-09-01d03t07.flac:8a6a096efb8e18daf2153a6227b40843
phish2012-09-01d03t08.flac:7bcecea4d2499c64ad031f6cb0488f6b
phish2012-09-01d03t09.flac:a63b2c2dc0524c2cfcdc56f4adefbe16
phish2012-09-01d03t10.flac:fc4a15d1128d9899abc3ef65e2beff06

Shntool

    length     expanded size    cdr  WAVE problems  fmt   ratio  filename
    10:11.47      107890988 B   ---   --   ---xx   flac  0.4731  phish2012-09-01d01t01.flac
     7:31.74       79730492 B   ---   --   ---xx   flac  0.4847  phish2012-09-01d01t02.flac
    13:38.31      144368156 B   ---   --   ---xx   flac  0.4886  phish2012-09-01d01t03.flac
    10:57.34      115974812 B   ---   --   ---xx   flac  0.4662  phish2012-09-01d01t04.flac
     1:08.56       12126956 B   ---   --   ---xx   flac  0.5015  phish2012-09-01d01t05.flac
     2:00.03       21175100 B   ---   --   ---xx   flac  0.5102  phish2012-09-01d01t06.flac
     5:09.18       54549980 B   ---   --   ---xx   flac  0.5067  phish2012-09-01d01t07.flac
     6:26.16       68128076 B   ---   --   ---xx   flac  0.5029  phish2012-09-01d01t08.flac
     6:11.36       65529116 B   ---   --   ---xx   flac  0.4936  phish2012-09-01d01t09.flac
     5:09.74       54681692 B   ---   --   ---xx   flac  0.4211  phish2012-09-01d01t10.flac
     8:26.38       89347820 B   ---   --   ---xx   flac  0.4531  phish2012-09-01d02t01.flac
     4:43.03       49928300 B   ---   --   ---xx   flac  0.4913  phish2012-09-01d02t02.flac
     5:45.39       60949772 B   ---   --   ---xx   flac  0.5081  phish2012-09-01d02t03.flac
    13:19.11      140969516 B   ---   --   ---xx   flac  0.4628  phish2012-09-01d02t04.flac
    11:16.33      119324060 B   ---   --   ---xx   flac  0.4801  phish2012-09-01d02t05.flac
    14:44.62      156083468 B   ---   --   ---xx   flac  0.4528  phish2012-09-01d02t06.flac
     8:59.72       95248988 B   ---   --   ---xx   flac  0.4914  phish2012-09-01d02t07.flac
     6:23.63       67709420 B   ---   --   ---xx   flac  0.4743  phish2012-09-01d03t01.flac
     6:04.55       64339004 B   ---   --   ---xx   flac  0.4817  phish2012-09-01d03t02.flac
     1:20.15       14147324 B   ---   --   ---xx   flac  0.3190  phish2012-09-01d03t03.flac
     5:02.24       53329292 B   ---   --   ---xx   flac  0.4532  phish2012-09-01d03t04.flac
     6:59.52       74033948 B   ---   --   ---xx   flac  0.5085  phish2012-09-01d03t05.flac
     7:36.05       80450204 B   ---   --   ---xx   flac  0.4568  phish2012-09-01d03t06.flac
     7:17.39       77178572 B   ---   --   ---xx   flac  0.4946  phish2012-09-01d03t07.flac
     0:40.48        7168940 B   ---   --   ---xx   flac  0.3498  phish2012-09-01d03t08.flac
     5:36.39       59362172 B   ---   --   ---xx   flac  0.4348  phish2012-09-01d03t09.flac
     4:09.61       44067116 B   ---   --   ---xx   flac  0.5030  phish2012-09-01d03t10.flac
   186:51.73     1977793284 B                            0.4749  (27 files)


















Show Checksums
16bit-FFP
phish2012-09-01d01t01.flac:3664f3aaa7e04f9f8e425e960472cee6
phish2012-09-01d01t02.flac:754d4e26098c20814598178642a0fdb7
phish2012-09-01d01t03.flac:483d9540a25b69168b1d03df8b33cb5d
phish2012-09-01d01t04.flac:fee29f6bc3d7822e84308446fa343bc5
phish2012-09-01d01t05.flac:12b4c29d8a70dc39e8941237feee356f
phish2012-09-01d01t06.flac:0280d041cea636cd3ec32c39b4c65352
phish2012-09-01d01t07.flac:e6a0e1b46758bc6e8a11ac909f89e56f
phish2012-09-01d01t08.flac:dedf3964db5d0a4e8d4549e0919491ad
phish2012-09-01d01t09.flac:87bf1c2b8310a04c18a1a3bad798bae6
phish2012-09-01d01t10.flac:4385a863a7df23b77935fca5aa22cdfa
phish2012-09-01d02t01.flac:5e871186973b6d2f7260c21e8abb7ea3
phish2012-09-01d02t02.flac:8236256845ee5cccc7aaee231323c078
phish2012-09-01d02t03.flac:234e7afeed996884a6d28785a018a65b
phish2012-09-01d02t04.flac:9150ac63475b2f7f5d4bc055f7d9cca3
phish2012-09-01d02t05.flac:d4640365aa63f79aa922de4cfb0030e0
phish2012-09-01d02t06.flac:4c27df71ed80c9019ca035ca7a185088
phish2012-09-01d02t07.flac:ff03a20d8b1b03742566db0af78525a7
phish2012-09-01d03t01.flac:23f887f14c2d05ce8b4de9190867085c
phish2012-09-01d03t02.flac:07a39cd685f5054e04a58d0fdab3b9de
phish2012-09-01d03t03.flac:9336b0f199fe7e9c0290cf5c1a9513ed
phish2012-09-01d03t04.flac:93b88abd22f2fe319ddcdf0b5b2bd8ab
phish2012-09-01d03t05.flac:1a8ff21618ed0e2dc8e3052f4b69048a
phish2012-09-01d03t06.flac:6e4ef823eac04196eb4b8d070b0b83e2
phish2012-09-01d03t07.flac:8a6a096efb8e18daf2153a6227b40843
phish2012-09-01d03t08.flac:7bcecea4d2499c64ad031f6cb0488f6b
phish2012-09-01d03t09.flac:a63b2c2dc0524c2cfcdc56f4adefbe16
phish2012-09-01d03t10.flac:fc4a15d1128d9899abc3ef65e2beff06

Comments
Add Comment
Other Sources (comments)
flac16; (FOB) DPA... (0) flac16; (FOB) AKG... (0) flac16; (FOB) DPA... (0) flac16; (FOB) Busman... (0) flac16; (FOB)... (0) flac24; (FOB)... (0) flac16; (FOB)... (0) flac16; (FOB)... (0) flac16; (FOB)... (0) flac24; (FOB)... (0) flac16; (FOB) Studio... (0) flac16; (FOB)... (0) flac24; (FOB)... (0) flac24; (FOB) DPA... (0) flac16; (FOB) Milab... (1) flac16; (FOB)... (0) flac16; (FOB) DPA... (0) flac24; (FOB) DPA... (0) flac16; (FOB) DPA... (0) flac24; (FOB) DPA... (0) flac16; (FOB) DPA... (0) flac24; (FOB) DPA... (0)
Date User Comment