Browse Collections Artists Sources   Search Dates

Add Show    List Management    Help


Grateful Dead 09/14/82
University of Virginia, Charlottesville, VA
Comments Add Comment    Source Collectors    Add to Collection    Add to Want List    History
Source # 121943 Other Sources
Entered by Matt Vernon
Checksums ffp , flac-md5
Disc Counts 0 / 0
Media Size Compressed: 3.53 GB (3788435465 bytes)
Uncompressed: 4.88 GB (5235977944 bytes)
Date Circulated
Date Added
09/08/2012
09/09/2012
Source Summary flac24; Recording Info: AKG 414 -> Cassette Master (Sony TC-D5M/Maxell XLII-S/TDK MA-R); Transfer Info: Cassette Master (Nakamichi DR-1) -> Sound Devices 744T (24bit/96k) -> Samplitude Professional v11.2.1 -> FLAC/24; All Transfers and Mastering By Charlie Miller; Recorded by Frank Streeter 
  Archive
Source Information - Download Text | Download Zip
Grateful Dead - September 14, 1982
University Hall - Charlottesville, VA

Recording Info:
AKG 414 -> Cassette Master (Sony TC-D5M/Maxell XLII-S/TDK MA-R)

Transfer Info:
Cassette Master (Nakamichi DR-1) -> Sound Devices 744T (24bit/96k) ->
Samplitude Professional v11.2.1 -> FLAC/24
(1 DVD FLAC)

All Transfers and Mastering By Charlie Miller
[email protected]
September 7, 2012

Patch Info:
Sennheiser 441 -> Cassette Master -> Cassette supplies:
He's Gone (6:05 - end of track)
Drums (complete track)

Notes:
-- Thanks to Frank Streeter for lending me his masters
-- Patched out of Dan Healy's mics set up mid/side at the soundboard
-- Thanks to Joe B. Jones for his help with pitch correcting the patch source

Set One:
s1t01 - Jack Straw
s1t02 - Peggy-O ->
s1t03 - C C Rider
s1t04 - Big Railroad Blues
s1t05 - El Paso
s1t06 - Bird Song
s1t07 - Lazy Lightnin' ->
s1t08 - Supplication
s1t09 - Deal

Set Two:
s2t01 - China Cat Sunflower ->
s2t02 - I Know You Rider
s2t03 - Samson And Delilah
s2t04 - High Time
s2t05 - Estimated Prophet ->
s2t06 - He's Gone ->
s2t07 - Drums ->
s2t08 - Space ->
s2t09 - Iko Iko ->
s2t10 - Truckin' ->
s2t11 - Black Peter ->
s2t12 - I Need A Miracle ->
s2t13 - Bertha

Encore:
s2t14 - Johnny B. Goode


SHNTOOL OUTPUT:
    length     expanded size    cdr  WAVE problems  fmt   ratio  filename
     5:40.432     196088744 B   cxx   --   ---xx   flac  0.7216  gd82-09-14s1t01.flac
     6:23.027     220623428 B   cxx   --   ---xx   flac  0.7203  gd82-09-14s1t02.flac
     7:15.245     250701176 B   cxx   --   ---xx   flac  0.7199  gd82-09-14s1t03.flac
     4:43.782     163458758 B   cxx   --   ---xx   flac  0.7284  gd82-09-14s1t04.flac
     6:21.951     220003592 B   cxx   --   ---xx   flac  0.7141  gd82-09-14s1t05.flac
     9:50.115     339906002 B   cxx   --   ---xx   flac  0.7249  gd82-09-14s1t06.flac
     3:19.266     114777248 B   cxx   --   ---xx   flac  0.7277  gd82-09-14s1t07.flac
     9:06.197     314609432 B   cxx   --   ---xx   flac  0.7257  gd82-09-14s1t08.flac
     6:16.821     217049216 B   cxx   --   ---xx   flac  0.7216  gd82-09-14s1t09.flac
     6:41.866     231474848 B   cxx   --   ---xx   flac  0.7291  gd82-09-14s2t01.flac
     5:43.393     197794604 B   cxx   --   ---xx   flac  0.7258  gd82-09-14s2t02.flac
     8:25.025     290894444 B   cxx   --   ---xx   flac  0.7247  gd82-09-14s2t03.flac
     7:51.784     271747676 B   cxx   --   ---xx   flac  0.7288  gd82-09-14s2t04.flac
    12:07.837     419234270 B   cxx   --   ---xx   flac  0.7292  gd82-09-14s2t05.flac
    11:30.093     397493852 B   cxx   --   ---xx   flac  0.7333  gd82-09-14s2t06.flac
     0:54.648      31477478 B   cxx   --   ---xx   flac  0.7383  gd82-09-14s2t07.flac
     2:24.949      83490440 B   cxx   --   ---xx   flac  0.6871  gd82-09-14s2t08.flac
     8:06.573     280265978 B   cxx   --   ---xx   flac  0.7210  gd82-09-14s2t09.flac
     6:28.536     223796948 B   cxx   --   ---xx   flac  0.7176  gd82-09-14s2t10.flac
     8:29.484     293463062 B   cxx   --   ---xx   flac  0.7160  gd82-09-14s2t11.flac
     3:06.613     107489288 B   cxx   --   ---xx   flac  0.7255  gd82-09-14s2t12.flac
     6:30.203     224757254 B   cxx   --   ---xx   flac  0.7181  gd82-09-14s2t13.flac
     4:12.396     145380206 B   cxx   --   ---xx   flac  0.7248  gd82-09-14s2t14.flac
   151:30.238    5235977944 B                            0.7235  (23 files)


Show Checksums
ffp
gd82-09-14s1t01.flac:8a03b5a489f5728d5d836084a5a88dd8
gd82-09-14s1t02.flac:034cffe22412a6283d2a0583a4198c1c
gd82-09-14s1t03.flac:8413cdeec8b15519f1c9f1812088e01b
gd82-09-14s1t04.flac:6177ac99d7f17342ddb4ba0635b76cf0
gd82-09-14s1t05.flac:e7ee5be6fc19c9d8435ac0e4b980e6ca
gd82-09-14s1t06.flac:96282877e3662fa651c19574af8ff856
gd82-09-14s1t07.flac:0955683d9d0526a3d9764dd8f27ede18
gd82-09-14s1t08.flac:8bea1b8ad52045ef4e2b181a47f6cceb
gd82-09-14s1t09.flac:38d90c96728792ad9887810b53402ebc
gd82-09-14s2t01.flac:b44718ab0d363c73cf919adf8c9c8fec
gd82-09-14s2t02.flac:049ebd745156cfad2b8a0f253cc67509
gd82-09-14s2t03.flac:7ebec715416637a1e3568d1400140ea7
gd82-09-14s2t04.flac:a20c58f633e934c1eaf40e5f490f1efc
gd82-09-14s2t05.flac:af9a9d5bc932ef63ee91faebe3290d3c
gd82-09-14s2t06.flac:108ab5f388ccaf333a7998d12e0dec24
gd82-09-14s2t07.flac:0093227008e349af024cce0309c6948f
gd82-09-14s2t08.flac:df1662df9c913a547234cd852e61e948
gd82-09-14s2t09.flac:972847c79d44a8e0d5d50f739183b4ee
gd82-09-14s2t10.flac:e711f2e43a406a0e9556716a5d0de14c
gd82-09-14s2t11.flac:f521e319e7e5b9fdc84b445f1524a344
gd82-09-14s2t12.flac:7d9c45f34503f8b764ce59f5cd97af3c
gd82-09-14s2t13.flac:71b45aeb31653b1c088427bb30126df8
gd82-09-14s2t14.flac:e2a4af405a49960f09a2014d0403ea8a
flac-md5
66cc4abd368a35c5ba1a93741ac39877 *gd82-09-14s1t01.flac
d9ae9b767f815da08108c8bfb75b7e85 *gd82-09-14s1t02.flac
3f85653a1827ff58a6848491f6fe6502 *gd82-09-14s1t03.flac
30df9ce1da2a5a2c4e2aa06c096257a9 *gd82-09-14s1t04.flac
4b85879f8c19f1fc12a66adbec99c314 *gd82-09-14s1t05.flac
c32b134d4b2001c5bbf13bd716a97251 *gd82-09-14s1t06.flac
9a003b350407de98c0c58ce2e2c817ba *gd82-09-14s1t07.flac
e20826bfcc12eaa80cf84b57170c7b67 *gd82-09-14s1t08.flac
3c212eb744915a6ab1c0761a88f8adbb *gd82-09-14s1t09.flac
e7f0b9a07ec7b3814981fc2dd6976605 *gd82-09-14s2t01.flac
853a4c6c2a9571db240900fb7273524b *gd82-09-14s2t02.flac
006b4142fac76dcc8b6ce4e8f460a4cf *gd82-09-14s2t03.flac
4f88df619b2587f2c9a053b8d071483c *gd82-09-14s2t04.flac
6fb7b1695068b4a468320d749991f46b *gd82-09-14s2t05.flac
e4e05fd1ded69fcef7e06448435a2911 *gd82-09-14s2t06.flac
bf322b3ae924354dfb4f03eddfb56776 *gd82-09-14s2t07.flac
db8729daff2a59b7d001a5bbed23145e *gd82-09-14s2t08.flac
28cc3faad74afee7a7aa4a58fdc1f809 *gd82-09-14s2t09.flac
741f7b4e1530f14006c3bd20f3dab4a2 *gd82-09-14s2t10.flac
dad567324801bf750853566f7c803217 *gd82-09-14s2t11.flac
e74ea95f846913b5c4dfbd047f142a34 *gd82-09-14s2t12.flac
e48029233c7b1a8f94eb685c83b1e1c2 *gd82-09-14s2t13.flac
8ced49dd56024204e995cf18c681e84b *gd82-09-14s2t14.flac

Comments
Add Comment
Other Sources (comments)
Master Soundboard Cassette... (6) Recording Info: 1st Set:... (0) flac16; Recording... (0)
Date User Comment