Browse Collections Artists Sources   Search Dates

Add Show    List Management    Help


Ratdog 08/25/08
Star Pavillion, Hershey, PA
Comments Add Comment    Source Collectors    Add to Collection    Add to Want List    History
Source # 121954 Other Sources
Entered by ziko
Checksums md5 , ffp
Disc Counts 0 / 0
Media Size
Uncompressed: 1.29 GB (1387810064 bytes)
Date Circulated
Date Added
09/10/2012
09/10/2012
Source Summary Source: Audience recording > ECM-MS957s > WM-D6 > mac Transfer: mac > Marantz PMD 430 > Edirol > wav 24/48 > Adobe Audition 1.5 > Wavelab (with iZotope Ozone 5 Advanced) > iZotope RX 2 Advanced > wav 16/44.1 > CD Wave > TLH > flac16 Taped and transferred by John Bleich 
Source Information - Download Text | Download Zip
Ratdog
Star Pavillion,
Hershey, PA
08/25/2008

Source: Audience recording > ECM-MS957s > WM-D6 > mac
Transfer: mac > Marantz PMD 430 > Edirol  > wav 24/48 > Adobe Audition 1.5 >
                 Wavelab (with iZotope Ozone 5 Advanced) > iZotope RX 2 Advanced >
                 wav 16/44.1 > CD Wave > TLH > flac16

Taped and transferred by John Bleich


01    Jam >
02   Here Comes Sunshine >
03   Big River
04   She Belongs to Me
05   Lucky Enough >
06   Deal
07   Blackbird
08   Friend of the Devil
09   Estimated Prophet >
10   The Other One >
11    Stuff >
12   Stella Blue
13   St. Stephen > *
14   William Tell Bridge > *
15   The Eleven *
16   Headcount Rap



Notes:

patches:

- First 47 seconds of "Jam"
- Tape flips after "Deal" and at end of "Stuff"
- "William Tell Bridge"

patch source: CMXY4V - SX PR - 722 (24/48) recorded by Robert Krall


Comments:

* with Warren Haynes - guitar, vocals
The Other One was second verse only and featured Spanish Jam

Opened for The Allman Brothers Band


Many thanks to John for this recording


edited and mastered
SIRMick
September 2012


shntool output:

    length     expanded size    cdr  WAVE problems  fmt   ratio  filename
     3:37.41       38375276 B   ---   --   ---xx   flac  0.5680  rd2008-08-25t01.flac
    10:12.23      108010940 B   ---   --   ---xx   flac  0.6136  rd2008-08-25t02.flac
     7:48.50       82672844 B   ---   --   ---xx   flac  0.6191  rd2008-08-25t03.flac
     7:46.69       82364732 B   ---   --   ---xx   flac  0.6010  rd2008-08-25t04.flac
    12:05.22      127941788 B   ---   --   ---xx   flac  0.6007  rd2008-08-25t05.flac
     9:29.14      100404572 B   ---   --   ---xx   flac  0.6121  rd2008-08-25t06.flac
     5:31.12       58416668 B   ---   --   ---xx   flac  0.5688  rd2008-08-25t07.flac
     7:25.60       78639164 B   ---   --   ---xx   flac  0.5766  rd2008-08-25t08.flac
    15:07.70      160159484 B   ---   --   ---xx   flac  0.5885  rd2008-08-25t09.flac
     6:59.43       74012780 B   ---   --   ---xx   flac  0.5898  rd2008-08-25t10.flac
     8:03.60       85342364 B   ---   --   ---xx   flac  0.5781  rd2008-08-25t11.flac
    13:38.48      144408140 B   ---   --   ---xx   flac  0.5810  rd2008-08-25t12.flac
     8:48.59       93278012 B   ---   --   ---xx   flac  0.5972  rd2008-08-25t13.flac
     1:14.64       13204172 B   ---   --   ---xx   flac  0.5938  rd2008-08-25t14.flac
    12:07.41      128339276 B   ---   --   ---xx   flac  0.5897  rd2008-08-25t15.flac
     1:09.29       12239852 B   ---   --   ---xx   flac  0.5718  rd2008-08-25t16.flac
   131:07.30     1387810064 B                            0.5930  (16 files)

flac fingerprints:

rd2008-08-25t01.flac:1d1ad484b2cd657b166946692e5e3816
rd2008-08-25t02.flac:695b3fc0871cb02dbe09d3870a22f142
rd2008-08-25t03.flac:27087d8b374062aa0b7875a2d47b5fbf
rd2008-08-25t04.flac:b435b94df6d99fd32e355390cb24b64f
rd2008-08-25t05.flac:42603a7f723d49f28eb9fe3a9b5307ad
rd2008-08-25t06.flac:4a7b9bf4d4931df1d831096e7b833ce5
rd2008-08-25t07.flac:03ced512183404e9fa520b65fcced81b
rd2008-08-25t08.flac:64f84405170f4730eb15067b45bc9572
rd2008-08-25t09.flac:fbe46513cfaf0ab4ca8f9f712daf6e5c
rd2008-08-25t10.flac:226cd58742dea05be3d4eea30ec0653a
rd2008-08-25t11.flac:68a15b7959e083a8094abf23657c4538
rd2008-08-25t12.flac:715a18dfc8528bd6e9932a00b7bf1fc9
rd2008-08-25t13.flac:987fb528804c3f397e75ebb217b29641
rd2008-08-25t14.flac:f8b527cf6ebf6895bc011dc09f7f1024
rd2008-08-25t15.flac:2be08b9a9d9148112c2c9ffa4bd0f99e
rd2008-08-25t16.flac:b52c883de9050b7ee56a647f63fbb1c7

Show Checksums
md5
a72c54007e2aae7848924b39ebbc9e95 *rd2008-08-25t01.flac
08128b35139d9c94cf1378582d99a302 *rd2008-08-25t02.flac
46ca6f896f38c427d0694c7447e1d415 *rd2008-08-25t03.flac
cd0c6c65c6a3ef6a05a782dc08b6d775 *rd2008-08-25t04.flac
8081a12a1e9b33e597b46361b6f4d9f7 *rd2008-08-25t05.flac
aed563f12d971ee061752b4fd90a9529 *rd2008-08-25t06.flac
9a483d2f6abcd6c9e4519ff62462f4c4 *rd2008-08-25t07.flac
75ef1d1c63d8647752c7d78800082d2e *rd2008-08-25t08.flac
df261f4cf1d581ea932266b8daefc065 *rd2008-08-25t09.flac
a55d74c1f45fe880615219297c0cbf36 *rd2008-08-25t10.flac
a5d52d18dc0b58e57880624d730bc32b *rd2008-08-25t11.flac
5984591c2b2450908b2851b8c72a67c3 *rd2008-08-25t12.flac
cd6e0481bd4275d40d045dddbb91d9e1 *rd2008-08-25t13.flac
11b8bd0319121a16c0b62c15fdc5f8f5 *rd2008-08-25t14.flac
eb2ff4c7002dd6e5fe74573e2ad369a6 *rd2008-08-25t15.flac
c4b5487d4b3f0520594d7541a403d74c *rd2008-08-25t16.flac
ffp
rd2008-08-25t01.flac:1d1ad484b2cd657b166946692e5e3816
rd2008-08-25t02.flac:695b3fc0871cb02dbe09d3870a22f142
rd2008-08-25t03.flac:27087d8b374062aa0b7875a2d47b5fbf
rd2008-08-25t04.flac:b435b94df6d99fd32e355390cb24b64f
rd2008-08-25t05.flac:42603a7f723d49f28eb9fe3a9b5307ad
rd2008-08-25t06.flac:4a7b9bf4d4931df1d831096e7b833ce5
rd2008-08-25t07.flac:03ced512183404e9fa520b65fcced81b
rd2008-08-25t08.flac:64f84405170f4730eb15067b45bc9572
rd2008-08-25t09.flac:fbe46513cfaf0ab4ca8f9f712daf6e5c
rd2008-08-25t10.flac:226cd58742dea05be3d4eea30ec0653a
rd2008-08-25t11.flac:68a15b7959e083a8094abf23657c4538
rd2008-08-25t12.flac:715a18dfc8528bd6e9932a00b7bf1fc9
rd2008-08-25t13.flac:987fb528804c3f397e75ebb217b29641
rd2008-08-25t14.flac:f8b527cf6ebf6895bc011dc09f7f1024
rd2008-08-25t15.flac:2be08b9a9d9148112c2c9ffa4bd0f99e
rd2008-08-25t16.flac:b52c883de9050b7ee56a647f63fbb1c7

Comments
Add Comment
Other Sources (comments)
Source Info:Superlux... (0) flac16;Source:... (0)
Date User Comment