Browse Collections Artists Sources   Search Dates

Add Show    List Management    Help


Grateful Dead 10/02/87
Shoreline Amphitheatre, Mountain View, CA
Comments Add Comment    Source Collectors    Add to Collection    Add to Want List    History
Source # 121960 Other Sources
Entered by Matt Vernon
Checksums ffp , flac-md5
Disc Counts 0 / 0
Media Size Compressed: 894.76 MB (938227297 bytes)
Uncompressed: 1.39 GB (1489214412 bytes)
Date Circulated
Date Added
09/09/2012
09/10/2012
Source Summary flac16; Recording Info: SBD -> Cassette Master (Maxell MX90); Transfer Info: Cassette Master (Tascam 122mkII) -> Apogee MiniMe (24bit/48k) -> Samplitude Professional v9.02 -> FLAC/16; Remastering Info: FLAC -> Adobe Audition v3.0 -> Samplitude Professional v11.2.1 -> FLAC; All Transfers and Mastering By Charlie Miller 
  Archive
Source Information - Download Text | Download Zip
Grateful Dead - October 2, 1987
Shoreline Amphitheatre - Mountain View, CA

Recording Info:
SBD -> Cassette Master (Maxell MX90)

Transfer Info:
Cassette Master (Tascam 122mkII) -> Apogee MiniMe (24bit/48k) ->
Samplitude Professional v9.02 -> FLAC/16

Remastering Info:
FLAC -> Adobe Audition v3.0 -> Samplitude Professional v11.2.1 -> FLAC
(2 Discs Audio / 1 DVD FLAC)

All Transfers and Mastering By Charlie Miller
[email protected]
September 5, 2012

Patch Info:
Audience recording supplied by David Minches supplies:
Space (0:00 - 0:10)

Notes:
-- This is a remaster of shnid=83905
-- Thanks to Paul Scotton and Joani Walker for the tapes
-- Thanks to Joe B. Jones for his help with the pitch correction

Set 1:
d1t01 - Tuning
d1t02 - Cold Rain And Snow
d1t03 - Little Red Rooster
d1t04 - Stagger Lee
d1t05 - Me And My Uncle ->
d1t06 - Mexicali Blues
d1t07 - Row Jimmy
d1t08 - Far From Me
d1t09 - Let It Grow

Set 2:
d2t01 - China Cat Sunflower ->
d2t02 - I Know You Rider
d2t03 - Man Smart (Woman Smarter)
d2t04 - Ship Of Fools
d2t05 - Truckin' ->
d2t06 - Drums ->
d2t07 - Space ->
d2t08 - The Wheel ->
d2t09 - Gimme Some Lovin' ->
d2t10 - All Along The Watchtower
d2t11 - Don't Ease Me In

Encore:
d2t12 - Black Muddy River


SHNTOOL OUTPUT:
    length     expanded size    cdr  WAVE problems  fmt   ratio  filename
     1:22.15       14500124 B   ---   --   ---xx   flac  0.5248  gd87-10-02d1t01.flac
     7:01.64       74414972 B   ---   --   ---xx   flac  0.6310  gd87-10-02d1t02.flac
     8:59.25       95138444 B   ---   --   ---xx   flac  0.6270  gd87-10-02d1t03.flac
     6:48.72       72140588 B   ---   --   ---xx   flac  0.6079  gd87-10-02d1t04.flac
     3:08.35       33245564 B   ---   --   ---xx   flac  0.6523  gd87-10-02d1t05.flac
     5:10.07       54700508 B   ---   --   ---xx   flac  0.6405  gd87-10-02d1t06.flac
    10:45.36      113862716 B   ---   --   ---xx   flac  0.6113  gd87-10-02d1t07.flac
     4:25.43       46847180 B   ---   --   ---xx   flac  0.6580  gd87-10-02d1t08.flac
    13:13.09      139906412 B   ---   --   ---xx   flac  0.6414  gd87-10-02d1t09.flac
     5:58.01       63153596 B   ---   --   ---xx   flac  0.6247  gd87-10-02d2t01.flac
     5:46.36       61119116 B   ---   --   ---xx   flac  0.6541  gd87-10-02d2t02.flac
     8:08.64       86233772 B   ---   --   ---xx   flac  0.6481  gd87-10-02d2t03.flac
     7:57.33       84220460 B   ---   --   ---xx   flac  0.6257  gd87-10-02d2t04.flac
     9:28.69      100357532 B   ---   --   ---xx   flac  0.6452  gd87-10-02d2t05.flac
     8:20.33       88277660 B   ---   --   ---xx   flac  0.5711  gd87-10-02d2t06.flac
     7:44.67       82007228 B   ---   --   ---xx   flac  0.5664  gd87-10-02d2t07.flac
     4:56.21       52263836 B   ---   --   ---xx   flac  0.6409  gd87-10-02d2t08.flac
     4:56.29       52282652 B   ---   --   ---xx   flac  0.6687  gd87-10-02d2t09.flac
     6:22.42       67483628 B   ---   --   ---xx   flac  0.6752  gd87-10-02d2t10.flac
     3:58.44       42086732 B   ---   --   ---xx   flac  0.6558  gd87-10-02d2t11.flac
     6:08.24       64971692 B   ---   --   ---xx   flac  0.6469  gd87-10-02d2t12.flac
   140:42.19     1489214412 B                            0.6300  (21 files)


Show Checksums
ffp
gd87-10-02d1t01.flac:f8a792c903b9844ff8e8821fd70ca0fc
gd87-10-02d1t02.flac:df7e8833ad4227e2c34cf536ebb4d3c2
gd87-10-02d1t03.flac:ba062931e98e5322d10029733bc2646d
gd87-10-02d1t04.flac:20d7a74e9242f8572258799e21809288
gd87-10-02d1t05.flac:96539177d8f02e801840cf29deba306e
gd87-10-02d1t06.flac:aa61375e6d1de527e6ceca0a432a3cc6
gd87-10-02d1t07.flac:d9f05c03cdbf36730a6611c8ca620e22
gd87-10-02d1t08.flac:a7fbde7529669a99dc43ceacf738f023
gd87-10-02d1t09.flac:d2b9fe5aea5da255d75f20031a98a76d
gd87-10-02d2t01.flac:2ac24e872c3dbe7bfcde4bc0442d848b
gd87-10-02d2t02.flac:4fb8121861dca5e7ef2082897bdc8aa9
gd87-10-02d2t03.flac:c3b99d33fe87712042595cec2e3baa0b
gd87-10-02d2t04.flac:b6cd2a582f0b9129c65398a624425571
gd87-10-02d2t05.flac:3d961d3074bb1b114aafa738e3bec14d
gd87-10-02d2t06.flac:9f62aff6450886fe09ef063862d70593
gd87-10-02d2t07.flac:2f11f09293eba7ff94c76747bfef7b4c
gd87-10-02d2t08.flac:8ed9c300844c1d6c53c9591b26b25c45
gd87-10-02d2t09.flac:6bf35e0c8521fc601356905bedcc7fdb
gd87-10-02d2t10.flac:dba9ccad61b6a4a3b562a71527a64c77
gd87-10-02d2t11.flac:4d229e46b5d5d8e6b796828b0305dc6b
gd87-10-02d2t12.flac:0a35a38f76ebfe01c9a3af73ff8db235
flac-md5
93e6913aa4c55bd1976b128b0418743c *gd87-10-02d1t01.flac
547676d32aaa39e980316cfa76ee68c9 *gd87-10-02d1t02.flac
974652a7ca09e1434ae2f097bb9f529a *gd87-10-02d1t03.flac
e70525a8f0d685bc92f9244633f83c6b *gd87-10-02d1t04.flac
96c9be26ca62b54de4452fbde25a2e92 *gd87-10-02d1t05.flac
86504400e6e9243800c1c73525ee0a86 *gd87-10-02d1t06.flac
7ebccd4b5f5c4d1981d152458d5eebed *gd87-10-02d1t07.flac
82e59d00324df3e25aa8d50bf0adabb4 *gd87-10-02d1t08.flac
8b42c9c91d2b0a84251f2cc7a5027f2a *gd87-10-02d1t09.flac
34a4e34d4256e051303c6023afd847ce *gd87-10-02d2t01.flac
2c64b756792db017373d87f02bdc6067 *gd87-10-02d2t02.flac
ecb0b15ed4bc0cf7964602b59fc06844 *gd87-10-02d2t03.flac
7ef2acea9d0603ea24191ea509b8a87d *gd87-10-02d2t04.flac
d49496c0b99dea86abed55c9284dc7f4 *gd87-10-02d2t05.flac
afc147aa2410fa8abf1bc4288f2e317a *gd87-10-02d2t06.flac
31caba3931902ae1c79a02c891a0f375 *gd87-10-02d2t07.flac
64cf102e757289b6d0e1437dd89002a1 *gd87-10-02d2t08.flac
449426ce558ef40e181e7121a7748b56 *gd87-10-02d2t09.flac
e2103b0213807f250a08e07bd7f2e203 *gd87-10-02d2t10.flac
909270e1131c1d1b5ae7f862f79d5ebe *gd87-10-02d2t11.flac
095cbbed59aac2fa5a687bf52c6e10e6 *gd87-10-02d2t12.flac

Comments
Add Comment
Other Sources (comments)
SBD> CM> DAT> WAV (Ego Sys... (0) Jay Ashley (Bertha)... (0) SBD> CM> DAT> WAV> CD> EAC>... (0) flac16; Recording... (0) flac16; Hat Mounted... (1) flac16; Source Info:... (0) flac24; Recording... (0) flac16; Recording... (0)
Date User Comment