Browse Collections Artists Sources   Search Dates

Add Show    List Management    Help


Grateful Dead 10/04/87
Shoreline Amphitheatre, Mountain View, CA
Comments Add Comment    Source Collectors    Add to Collection    Add to Want List    History
Source # 121962 Other Sources
Entered by Matt Vernon
Checksums ffp , flac-md5
Disc Counts 0 / 0
Media Size Compressed: 828.39 MB (868629507 bytes)
Uncompressed: 1.29 GB (1386704888 bytes)
Date Circulated
Date Added
09/09/2012
09/10/2012
Source Summary flac16; Recording Info: SBD -> Cassette Master (Maxell MX90); Transfer Info: Cassette Master (Tascam 122mkII) -> Apogee MiniMe (24bit/48k) -> Samplitude Professional v9.02 -> FLAC/16; Remastering Info: FLAC -> Adobe Audition v3.0 -> Samplitude Professional v11.2.1 -> FLAC; All Transfers and Mastering By Charlie Miller 
  Archive
Source Information - Download Text | Download Zip
Grateful Dead - October 4, 1987
Shoreline Amphitheatre - Mountain View, CA

Recording Info:
SBD -> Cassette Master (Maxell MX90)

Transfer Info:
Cassette Master (Tascam 122mkII) -> Apogee MiniMe (24bit/48k) ->
Samplitude Professional v9.02 -> FLAC/16

Remastering Info:
FLAC -> Adobe Audition v3.0 -> Samplitude Professional v11.2.1 -> FLAC
(2 Discs Audio / 1 DVD FLAC)

All Transfers and Mastering By Charlie Miller
[email protected]
September 6, 2012

Patch Info:
Audience recording supplied by David Minches supplies:
Space (0:22 - 0:38)

Notes:
-- This is a remaster of shnid=83907
-- Encore moved to end of Set 1 to fit onto 2 discs
-- Thanks to Paul Scotton and Joani Walker for the tapes
-- Thanks to Joe B. Jones for his help with the pitch correction

Set 1:
d1t01 - Tuning
d1t02 - Jack Straw
d1t03 - When Push Comes To Shove
d1t04 - Walkin' Blues
d1t05 - High Time
d1t06 - Desolation Row
d1t07 - Iko Iko

Set 2:
d2t01 - Tuning
d2t02 - Hell In A Bucket
d2t03 - Devil With The Blue Dress On ->
d2t04 - Good Golly Miss Molly ->
d2t05 - Devil With The Blue Dress On ->
d2t06 - Estimated Prophet ->
d2t07 - Eyes Of The World ->
d2t08 - Drums ->
d2t09 - Space ->
d2t10 - I Need A Miracle ->
d2t11 - Dear Mr. Fantasy ->
d2t12 - Wharf Rat ->
d2t13 - Not Fade Away

Encore:
d1t08 - Touch Of Grey ->
d1t09 - Brokedown Palace


SHNTOOL OUTPUT:
    length     expanded size    cdr  WAVE problems  fmt   ratio  filename
     1:28.59       15662012 B   ---   --   ---xx   flac  0.5163  gd87-10-04d1t01.flac
     6:11.69       65606732 B   ---   --   ---xx   flac  0.6488  gd87-10-04d1t02.flac
     5:50.50       61857644 B   ---   --   ---xx   flac  0.6223  gd87-10-04d1t03.flac
     8:05.40       85648124 B   ---   --   ---xx   flac  0.6187  gd87-10-04d1t04.flac
     9:01.37       95519468 B   ---   --   ---xx   flac  0.5958  gd87-10-04d1t05.flac
    11:36.32      122849708 B   ---   --   ---xx   flac  0.6506  gd87-10-04d1t06.flac
     5:41.28       60218300 B   ---   --   ---xx   flac  0.6700  gd87-10-04d1t07.flac
     6:19.13       66886220 B   ---   --   ---xx   flac  0.6554  gd87-10-04d1t08.flac
     5:31.01       58390796 B   ---   --   ---xx   flac  0.6124  gd87-10-04d1t09.flac
     2:02.46       21629036 B   ---   --   ---xx   flac  0.5301  gd87-10-04d2t01.flac
     6:23.40       67655324 B   ---   --   ---xx   flac  0.6775  gd87-10-04d2t02.flac
     2:39.05       28059404 B   ---   --   ---xx   flac  0.6734  gd87-10-04d2t03.flac
     0:55.47        9812588 B   ---   --   ---xx   flac  0.6794  gd87-10-04d2t04.flac
     1:50.44       19507532 B   ---   --   ---xx   flac  0.6597  gd87-10-04d2t05.flac
    10:53.33      115266860 B   ---   --   ---xx   flac  0.6515  gd87-10-04d2t06.flac
     6:19.45       66961484 B   ---   --   ---xx   flac  0.6481  gd87-10-04d2t07.flac
     7:15.07       76750508 B   ---   --   ---xx   flac  0.5631  gd87-10-04d2t08.flac
     7:13.62       76527068 B   ---   --   ---xx   flac  0.5461  gd87-10-04d2t09.flac
     3:37.29       38347052 B   ---   --   ---xx   flac  0.6432  gd87-10-04d2t10.flac
     5:02.50       53390444 B   ---   --   ---xx   flac  0.6429  gd87-10-04d2t11.flac
     8:22.12       88581068 B   ---   --   ---xx   flac  0.6121  gd87-10-04d2t12.flac
     8:39.11       91577516 B   ---   --   ---xx   flac  0.6253  gd87-10-04d2t13.flac
   131:01.10     1386704888 B                            0.6264  (22 files)


Show Checksums
ffp
gd87-10-04d1t01.flac:e44c534f474701ca132f8119fec22ece
gd87-10-04d1t02.flac:13c63b1532e2f8dc6045045894b361ff
gd87-10-04d1t03.flac:3c3f528c7273307c505dff5acf70fc09
gd87-10-04d1t04.flac:140903e3ea221228f28bac97fe525a59
gd87-10-04d1t05.flac:1bff89b3fb0f5d9a12680149cb97a3bf
gd87-10-04d1t06.flac:0f95c3df001889dd446c323255f731f4
gd87-10-04d1t07.flac:b6e19e78361e431f1e1ef0932bf964f3
gd87-10-04d1t08.flac:c43497a445110ce28b7951ef18d0993e
gd87-10-04d1t09.flac:ea98c5cc8fbd8d435b8cccc0ea12e8b5
gd87-10-04d2t01.flac:d5e2a72376a718c8d235fc2be15c0dd6
gd87-10-04d2t02.flac:311daeb3c4b2f167bd46663682a05518
gd87-10-04d2t03.flac:4523d52516b2789ee371fd665ffa3d4c
gd87-10-04d2t04.flac:9f045d84507294e196a8c622fa313f3d
gd87-10-04d2t05.flac:bed98040b22af9bc8800a03619525dc4
gd87-10-04d2t06.flac:c4b93c333dade52de4fa611f94ba9420
gd87-10-04d2t07.flac:837e3dd4e351dc0330385201e23876ff
gd87-10-04d2t08.flac:63c112c434a052ac14da8bc1a9f64ac9
gd87-10-04d2t09.flac:5faeabd416ecd4865cb86804ed74d851
gd87-10-04d2t10.flac:922944732b1bdc85b867c6956a0bcab7
gd87-10-04d2t11.flac:8daa96572e1a5ec02a2b47d75334a899
gd87-10-04d2t12.flac:5fcc72c68ef633d1fbda8c47a201f6ba
gd87-10-04d2t13.flac:10d6e70d3e3ed70a7097ff8671bb75b6
flac-md5
3a5d27407f0caf4ff48b83f7406b324e *gd87-10-04d1t01.flac
6011f00b01ffaf8bc86dc4206197b89f *gd87-10-04d1t02.flac
2f1228b88d88308e368b94aa252e7d17 *gd87-10-04d1t03.flac
6231c617ea7f53865aef23f6db53d31d *gd87-10-04d1t04.flac
53cd019e7f704fb3edd9284f4d3b2a08 *gd87-10-04d1t05.flac
b792e75aebddbfae112659afd44c203a *gd87-10-04d1t06.flac
af6c192102d08aaf598f91358e0a601b *gd87-10-04d1t07.flac
8bf4a605828d1284b6f1059c147a737a *gd87-10-04d1t08.flac
514436510e73ef26c4c155f3b284d5ea *gd87-10-04d1t09.flac
4401ddf876ef356b9cdae0feb637fd1c *gd87-10-04d2t01.flac
3dd852423e9b7c8c963a67a992f4b80c *gd87-10-04d2t02.flac
c2cdfa9a155cbe5fdf55433930722419 *gd87-10-04d2t03.flac
05ac0c81cbf55a1bd595f96f954348cb *gd87-10-04d2t04.flac
4557aac0437aa304a63cf6238613e5c9 *gd87-10-04d2t05.flac
054708febad538b69979b9b544eab7d5 *gd87-10-04d2t06.flac
ae98b6caa1195c41e543d04c591a34f1 *gd87-10-04d2t07.flac
6227298f1278ee886098be317b5bbc64 *gd87-10-04d2t08.flac
f4ad273a975fb407ed4a0b9209863bac *gd87-10-04d2t09.flac
478b1057a06c2420f774c4fcc42dc072 *gd87-10-04d2t10.flac
0c7467136c71ee4774a0adaf3abf2812 *gd87-10-04d2t11.flac
9d609e6af7d0608102f834bd745f22c5 *gd87-10-04d2t12.flac
d7d5af752774f18d36d3ac1aeef3a666 *gd87-10-04d2t13.flac

Comments
Add Comment
Other Sources (comments)
Master> DAT> CDr; via Mike Lai (2) Jay Ashley (Bertha)... (0) SBD> CM> DAT> CD> EAC> SHN... (0) flac16; Source:... (4) flac16; Recording... (0) flac16; 1st gen... (0) flac16; Source:... (0) flac16; Source Info:... (0)
Date User Comment