Browse Collections Artists Sources   Search Dates

Add Show    List Management    Help


Grateful Dead 10/31/70
Gym, S.U.N.Y. (early), Stony Brook, NY
Comments Add Comment    Source Collectors    Add to Collection    Add to Want List    History
Source # 122042 Other Sources
Entered by Matt Vernon
Checksums ffp , flac-md5
Disc Counts 0 / 0
Media Size Compressed: 1.45 GB (1553074763 bytes)
Uncompressed: 2.79 GB (2997519324 bytes)
Date Circulated
Date Added
09/16/2012
09/17/2012
Source Summary flac16/48kHz; Recording Info: SBD -> Master Reel (7inch @7.5ips 1/2trk) -> Dat (Denon DTR 2000/48k); Transfer Info: Dat (Sony R500) -> Apogee Ensemble -> Peak Pro 7 -> AIFF; Mastering Info: AIFF -> Samplitude Professional v11.2.1 -> FLAC/48k; Transferred By Digitalrbb; Mastered By Charlie Miller 
  Archive
Source Information - Download Text | Download Zip
Grateful Dead - October 31, 1970
University Gymnasium - Stony Brook, NY

Recording Info:
SBD -> Master Reel (7inch @7.5ips 1/2trk) -> Dat (Denon DTR 2000/48k)

Transfer Info:
Dat (Sony R500) -> Apogee Ensemble -> Peak Pro 7 -> AIFF

Mastering Info:
AIFF -> Samplitude Professional v11.2.1 -> FLAC/48k
(1 DVD FLAC)

Dat supplied By Dan De Luca
Transferred By Digitalrbb
Mastered By Charlie Miller
September 16, 2012

Patch Source:
SBD -> Master Reel -> Cassette -> Dat > SHN (shnid=16902) supplies:
Hard To Handle (Late Show)

Notes:
-- I Know You Rider is cut at the end
-- Reel flip in Brokedown Palace
-- Thanks to Darryl Hinko for the patch source

NRPS Early Show:
s1t01 - Six Days On The Road
s1t02 - Long Black Veil
s1t03 - I Don't Know You
s1t04 - Lodi
s1t05 - Superman
s1t06 - Glendale Train
s1t07 - Cecilia
s1t08 - Henry
s1t09 - Rainbow
s1t10 - Louisiana Lady
s1t11 - Honky Tonk Women

GD Early Show:
s2t01 - Till The Morning Comes
s2t02 - Hard To Handle
s2t03 - Mama Tried
s2t04 - China Cat Sunflower ->
s2t05 - I Know You Rider
s2t06 - Dire Wolf
s2t07 - Cold Rain And Snow
s2t08 - Me And My Uncle
s2t09 - Dark Hollow
s2t10 - Brokedown Palace
s2t11 - Viola Lee Blues ->
s2t12 - Cumberland Blues ->
s2t13 - Uncle John's Band

NRPS Late Show:
s3t01 - Workin' Man Blues
s3t02 - Watcha Gonna Do
s3t03 - Glendale Train
s3t04 - Portland Woman
s3t05 - Dirty Business
s3t06 - Fair Chance To Know
s3t07 - Last Lonely Eagle
s3t08 - Louisiana Lady
s3t09 - Honky Tonk Women

GD Late Show:
s4t01 - Casey Jones
s4t02 - Sugar Magnolia
s4t03 - Next Time You See Me
s4t04 - That's It For The Other One ->
s4t05 - Cosmic Charlie
s4t06 - Big Boss Man
s4t07 - Mama Tried
s4t08 - Hard To Handle
s4t09 - Good Lovin'
s4t10 - Saint Stephen ->
s4t11 - Not Fade Away ->
S4t12 - Goin' Down The Road Feeling Bad ->
s4t13 - Not Fade Away


SHNTOOL OUTPUT:
    length     expanded size    cdr  WAVE problems  fmt   ratio  filename
     3:08.267      36147244 B   cxx   --   ---xx   flac  0.5171  gd70-10-31s1t01.flac
     4:54.267      56499240 B   cxx   --   ---xx   flac  0.5196  gd70-10-31s1t02.flac
     4:26.733      51212840 B   cxx   --   ---xx   flac  0.4792  gd70-10-31s1t03.flac
     4:30.928      52018256 B   cxx   --   ---xx   flac  0.4999  gd70-10-31s1t04.flac
     4:03.147      46684228 B   cxx   --   ---xx   flac  0.5087  gd70-10-31s1t05.flac
     5:19.117      61270584 B   cxx   --   ---xx   flac  0.5240  gd70-10-31s1t06.flac
     4:29.944      51829280 B   cxx   --   ---xx   flac  0.5204  gd70-10-31s1t07.flac
     4:15.534      49062560 B   cxx   --   ---xx   flac  0.5079  gd70-10-31s1t08.flac
     2:58.710      34312408 B   cxx   --   ---xx   flac  0.5171  gd70-10-31s1t09.flac
     4:18.098      49554804 B   cxx   --   ---xx   flac  0.5099  gd70-10-31s1t10.flac
     5:13.355      60164132 B   cxx   --   ---xx   flac  0.5121  gd70-10-31s1t11.flac
     4:01.346      46338500 B   cxx   --   ---xx   flac  0.5124  gd70-10-31s2t01.flac
     8:53.479     102427924 B   cxx   --   ---xx   flac  0.5242  gd70-10-31s2t02.flac
     3:08.169      36128588 B   cxx   --   ---xx   flac  0.5118  gd70-10-31s2t03.flac
     4:45.806      54874704 B   cxx   --   ---xx   flac  0.5239  gd70-10-31s2t04.flac
     3:28.434      40019376 B   cxx   --   ---xx   flac  0.5229  gd70-10-31s2t05.flac
     4:35.699      52934284 B   cxx   --   ---xx   flac  0.4954  gd70-10-31s2t06.flac
     6:49.719      78666112 B   cxx   --   ---xx   flac  0.5242  gd70-10-31s2t07.flac
     3:57.206      45543636 B   cxx   --   ---xx   flac  0.4988  gd70-10-31s2t08.flac
     3:43.795      42968748 B   cxx   --   ---xx   flac  0.4928  gd70-10-31s2t09.flac
     5:56.599      68466976 B   cxx   --   ---xx   flac  0.4773  gd70-10-31s2t10.flac
     9:18.279     107189680 B   cxx   --   ---xx   flac  0.5328  gd70-10-31s2t11.flac
     4:34.621      52727212 B   cxx   --   ---xx   flac  0.5277  gd70-10-31s2t12.flac
     6:07.150      70492892 B   cxx   --   ---xx   flac  0.5162  gd70-10-31s2t13.flac
     4:03.749      46799764 B   cxx   --   ---xx   flac  0.5052  gd70-10-31s3t01.flac
     4:31.972      52218700 B   cxx   --   ---xx   flac  0.4979  gd70-10-31s3t02.flac
     5:57.726      68683436 B   cxx   --   ---xx   flac  0.5060  gd70-10-31s3t03.flac
     5:29.299      63225400 B   cxx   --   ---xx   flac  0.5133  gd70-10-31s3t04.flac
     9:45.168     112352208 B   cxx   --   ---xx   flac  0.5173  gd70-10-31s3t05.flac
     4:06.282      47286120 B   cxx   --   ---xx   flac  0.5044  gd70-10-31s3t06.flac
     6:31.848      75234924 B   cxx   --   ---xx   flac  0.5041  gd70-10-31s3t07.flac
     4:16.149      49180660 B   cxx   --   ---xx   flac  0.5324  gd70-10-31s3t08.flac
     5:13.721      60234460 B   cxx   --   ---xx   flac  0.5118  gd70-10-31s3t09.flac
     5:11.580      59823388 B   cxx   --   ---xx   flac  0.5155  gd70-10-31s4t01.flac
     5:28.551      63081852 B   cxx   --   ---xx   flac  0.5318  gd70-10-31s4t02.flac
     3:58.335      45760452 B   cxx   --   ---xx   flac  0.5281  gd70-10-31s4t03.flac
    22:53.564     263724336 B   cxx   --   ---xx   flac  0.5088  gd70-10-31s4t04.flac
     6:33.594      75570060 B   cxx   --   ---xx   flac  0.5326  gd70-10-31s4t05.flac
     4:20.160      49950772 B   cxx   --   ---xx   flac  0.5406  gd70-10-31s4t06.flac
     2:54.133      33433640 B   cxx   --   ---xx   flac  0.5370  gd70-10-31s4t07.flac
     7:13.680      83266604 B   cxx   --   ---xx   flac  0.5875  gd70-10-31s4t08.flac
    15:04.832     173727848 B   cxx   --   ---xx   flac  0.5085  gd70-10-31s4t09.flac
     5:52.537      67687060 B   cxx   --   ---xx   flac  0.5301  gd70-10-31s4t10.flac
     4:54.686      56579692 B   cxx   --   ---xx   flac  0.5402  gd70-10-31s4t11.flac
     5:46.118      66454752 B   cxx   --   ---xx   flac  0.5633  gd70-10-31s4t12.flac
     3:05.984      35708988 B   cxx   --   ---xx   flac  0.5347  gd70-10-31s4t13.flac
   260:12.069    2997519324 B                            0.5181  (46 files)


Show Checksums
ffp
gd70-10-31s1t01.flac:40b77c17d667a685810e172c15464ac6
gd70-10-31s1t02.flac:e95c2fb0dfb1a7511fad3e5585ae7e11
gd70-10-31s1t03.flac:3e969eba05da3979a9cafdb7eb924a76
gd70-10-31s1t04.flac:42e44161efe6987d01b48ac310e9db56
gd70-10-31s1t05.flac:b90eb7b49692fc89b16aa16b995318af
gd70-10-31s1t06.flac:d3ce1744ee5113a9da5f2f9a2300a8c9
gd70-10-31s1t07.flac:a51eb6d6b86f29abdd74c07f8acb468e
gd70-10-31s1t08.flac:5f321c1e67a732c131d170ef8ce3e77d
gd70-10-31s1t09.flac:4711635de81eb977a3bc8c5c950a858a
gd70-10-31s1t10.flac:624096f0dcc9338f2d0bba7f7ac9acc4
gd70-10-31s1t11.flac:b8ecd372cec01cead9af68c50ad5ad2f
gd70-10-31s2t01.flac:2141951af9bac1a65b051a1083af7fff
gd70-10-31s2t02.flac:d0f44af0ca32a8709f8fee78d864f285
gd70-10-31s2t03.flac:af61d76cc215732d00473ae48d20dca7
gd70-10-31s2t04.flac:ba311dfc6df1f553dca4bb460390e8db
gd70-10-31s2t05.flac:477189206b9e3729105cb50341333066
gd70-10-31s2t06.flac:4b25d4dcf460dbdbc56200d69e18fac5
gd70-10-31s2t07.flac:d935cad988e6f272ab4ed32f1bf89929
gd70-10-31s2t08.flac:74f8dde10e71a005ee80a2b0135e79b1
gd70-10-31s2t09.flac:29d67a578d129ba52d2ee54bddd97d7f
gd70-10-31s2t10.flac:534c7937f0b19e034153f684896aceb4
gd70-10-31s2t11.flac:b93e192f45a8a91a87f20140ca7b3ece
gd70-10-31s2t12.flac:d9cb5602f85939c4e07a830fa3a31f49
gd70-10-31s2t13.flac:64a801362ccbe084b8ff51d49e7fb326
gd70-10-31s3t01.flac:e8951463f7553f5ce95b61d7764c898c
gd70-10-31s3t02.flac:0bbf83b4d36d8457dc17f5faa31853f3
gd70-10-31s3t03.flac:7c2dcd76622c88c2c0d16cd7dcef786a
gd70-10-31s3t04.flac:43020ea9996ce3436a3619dcf547714a
gd70-10-31s3t05.flac:0dc3de4b7e9855ee0abcf51efb137a52
gd70-10-31s3t06.flac:c6b491a3b5049bde9acc6c2610831fa5
gd70-10-31s3t07.flac:f66cd751d209153d4e0695b9320c0215
gd70-10-31s3t08.flac:ecdd670e6d94aa185f548b8ca66b6738
gd70-10-31s3t09.flac:c055a088f70958e0c89e307ee4d2f339
gd70-10-31s4t01.flac:7b57b0c1ee4314a985bbea1de906054e
gd70-10-31s4t02.flac:5b52626920136ac019c5be10f6f4b404
gd70-10-31s4t03.flac:464586752fcd02b97b973f6d4801ac89
gd70-10-31s4t04.flac:7e0b937dcec57254b3faa924f4353402
gd70-10-31s4t05.flac:c31cc9b0c9206a0bad3478b99970f08c
gd70-10-31s4t06.flac:ef5ae7c510d8feb3bf26cbb0204e3832
gd70-10-31s4t07.flac:69a9b1083cf36bc01fa738f34407e501
gd70-10-31s4t08.flac:c4f1fef999f8529c5eaf3829a60bf3ad
gd70-10-31s4t09.flac:267990b788f9ffee9b162e0d9f67fef5
gd70-10-31s4t10.flac:4328f9ba904e67873f7898ac3228ebb5
gd70-10-31s4t11.flac:e1f571e58d57d1d228050c4303477c0d
gd70-10-31s4t12.flac:6abe2cfafa6c832947906b7ccf69a401
gd70-10-31s4t13.flac:d23be5d0fd2f2940dd50b0f158c9a74d
flac-md5
b6deb74c7dcd3abc11bb47d9de47a7db *gd70-10-31s1t01.flac
ebc015a249417849c65a04fde021ea37 *gd70-10-31s1t02.flac
52d39f46e6af76e46b30847631896b3e *gd70-10-31s1t03.flac
eec73136be3a4914592561d2c2ac1924 *gd70-10-31s1t04.flac
b0c69596f793ab6e684ce63d6d2eddec *gd70-10-31s1t05.flac
ce6467bdb0256785b9ce90d5abdc72f5 *gd70-10-31s1t06.flac
cfe5dd1012808ce7723fd86614a38624 *gd70-10-31s1t07.flac
75643063d30399874be58784c2e7bfb7 *gd70-10-31s1t08.flac
3c544e61ffcd5a866513432977f397b1 *gd70-10-31s1t09.flac
5ac60062a388c20ef2492eb6395f663a *gd70-10-31s1t10.flac
745c67b1b78961006955d7a54eb11494 *gd70-10-31s1t11.flac
1071059ad83679c6f2130c2e1ad72d8a *gd70-10-31s2t01.flac
25bf582724f8d278f82273f8938893ac *gd70-10-31s2t02.flac
fa95362c6a8b1afa6599195e2734019a *gd70-10-31s2t03.flac
ce031204c0a16507b1a96a5d8556b866 *gd70-10-31s2t04.flac
b7c6d3ab6d17f521a47bd1fb514d28f5 *gd70-10-31s2t05.flac
5539940508f15838adba1bf4ca656ae9 *gd70-10-31s2t06.flac
e9aea6aa1f646bfa02fc64d9f4c80d03 *gd70-10-31s2t07.flac
8ec652a6cbd2a2d63d603df8bcfaf527 *gd70-10-31s2t08.flac
d34dd4d4034df644b6e98afd80e00129 *gd70-10-31s2t09.flac
50ed48740f2b7533c4714d81b9d84a12 *gd70-10-31s2t10.flac
37345b344eb6255a02c112becf4e1801 *gd70-10-31s2t11.flac
76a13ee68ab146df4a1f8bdabb88d0fa *gd70-10-31s2t12.flac
c137e6e63ec914cbcd45b930da758ff6 *gd70-10-31s2t13.flac
81617d0a4a5212401cb51b51e8bf4ddb *gd70-10-31s3t01.flac
40204551c49987c88bf4b16d3da19e4d *gd70-10-31s3t02.flac
3f42e2f52381ca115593cddf24d12790 *gd70-10-31s3t03.flac
85d8a8186033cc86113c8a13f5918f60 *gd70-10-31s3t04.flac
48e1d54954ccbc6f58b1176cb016f1ed *gd70-10-31s3t05.flac
7f033f82a75cd86f1059c0272426afcb *gd70-10-31s3t06.flac
ab0900c0d2aa95dc536b1c78e74157e2 *gd70-10-31s3t07.flac
ad7547cb6fd96e9f125058b365514244 *gd70-10-31s3t08.flac
a3f0870da9095c274866ffde3f98e30e *gd70-10-31s3t09.flac
2fa8586782c60becb70aff01202e7ee7 *gd70-10-31s4t01.flac
19bb5b9e809dca5c0d9b8ef12d52349d *gd70-10-31s4t02.flac
552d65e77ea85884e6a827a8974ac87d *gd70-10-31s4t03.flac
8527b5ae5d071994874ac06085be2b74 *gd70-10-31s4t04.flac
a1057506b3cec1a98f594c363f5dea3f *gd70-10-31s4t05.flac
5d3132c7bde4a68e925ae3f871ee6d60 *gd70-10-31s4t06.flac
f06b5dcac310422b55d5be09ed38c0b7 *gd70-10-31s4t07.flac
c8785094c834cc4c04bc9b9edfabc2dc *gd70-10-31s4t08.flac
641bae9ffbf4c3994c106ce4e3c8276f *gd70-10-31s4t09.flac
ad7a48de41890aeaf79a0502490d762e *gd70-10-31s4t10.flac
3696f49d323dc9df3e19aba9c4ff00df *gd70-10-31s4t11.flac
f728d503a5c1b830809f90da40584701 *gd70-10-31s4t12.flac
ad9bcc94c9990fb8964423ff9dd65806 *gd70-10-31s4t13.flac

Comments
Add Comment
Other Sources (comments)
early electric; SBD > Reel... (1) flac16; Recording... (1)
Date User Comment
09/20/2012 charliemiller s1t09 is actually called "I'm In Love With You".