Browse Collections Artists Sources   Search Dates

Add Show    List Management    Help


Grateful Dead 10/31/70
Gym, S.U.N.Y. (early), Stony Brook, NY
Comments Add Comment    Source Collectors    Add to Collection    Add to Want List    History
Source # 122043 Other Sources
Entered by Matt Vernon
Checksums ffp , flac-md5
Disc Counts 0 / 0
Media Size Compressed: 1.36 GB (1457001582 bytes)
Uncompressed: 2.56 GB (2753975288 bytes)
Date Circulated
Date Added
09/16/2012
09/17/2012
Source Summary flac16; Recording Info: SBD -> Master Reel (7inch @7.5ips 1/2trk) -> Dat (Denon DTR 2000/48k); Transfer Info: Dat (Sony R500) -> Apogee Ensemble -> Peak Pro 7 -> AIFF; Mastering Info: AIFF -> Samplitude Professional v11.2.1 -> FLAC/44.1k; Transferred By Digitalrbb; Mastered By Charlie Miller 
  Archive
Source Information - Download Text | Download Zip
Grateful Dead - October 31, 1970
University Gymnasium - Stony Brook, NY

Recording Info:
SBD -> Master Reel (7inch @7.5ips 1/2trk) -> Dat (Denon DTR 2000/48k)

Transfer Info:
Dat (Sony R500) -> Apogee Ensemble -> Peak Pro 7 -> AIFF

Mastering Info:
AIFF -> Samplitude Professional v11.2.1 -> FLAC/44.1k
(4 Discs Audio / 1 DVD FLAC)

Dat supplied By Dan De Luca
Transferred By Digitalrbb
Mastered By Charlie Miller
September 16, 2012

Patch Source:
SBD -> Master Reel -> Cassette -> Dat > SHN (shnid=16902) supplies:
Hard To Handle (Late Show)

Notes:
-- I Know You Rider is cut at the end
-- Reel flip in Brokeddow Palace
-- Thanks to Darryl Hinko for the patch source

NRPS Early Show:
s1t01 - Six Days On The Road
s1t02 - Long Black Veil
s1t03 - I Don't Know You
s1t04 - Lodi
s1t05 - Superman
s1t06 - Glendale Train
s1t07 - Cecilia
s1t08 - Henry
s1t09 - Rainbow
s1t10 - Louisiana Lady
s1t11 - Honky Tonk Women

GD Early Show:
s2t01 - Till The Morning Comes
s2t02 - Hard To Handle
s2t03 - Mama Tried
s2t04 - China Cat Sunflower ->
s2t05 - I Know You Rider
s2t06 - Dire Wolf
s2t07 - Cold Rain And Snow
s2t08 - Me And My Uncle
s2t09 - Dark Hollow
s2t10 - Brokedown Palace
s2t11 - Viola Lee Blues ->
s2t12 - Cumberland Blues ->
s2t13 - Uncle John's Band

NRPS Late Show:
s3t01 - Workin' Man Blues
s3t02 - Watcha Gonna Do
s3t03 - Glendale Train
s3t04 - Portland Woman
s3t05 - Dirty Business
s3t06 - Fair Chance To Know
s3t07 - Last Lonely Eagle
s3t08 - Louisiana Lady
s3t09 - Honky Tonk Women

GD Late Show:
s4t01 - Casey Jones
s4t02 - Sugar Magnolia
s4t03 - Next Time You See Me
s4t04 - That's It For The Other One ->
s4t05 - Cosmic Charlie
s4t06 - Big Boss Man
s4t07 - Mama Tried
s4t08 - Hard To Handle
s4t09 - Good Lovin'
s4t10 - Saint Stephen ->
s4t11 - Not Fade Away ->
S4t12 - Goin' Down The Road Feeling Bad ->
s4t13 - Not Fade Away


SHNTOOL OUTPUT:
    length     expanded size    cdr  WAVE problems  fmt   ratio  filename
     3:08.20       33210284 B   ---   --   ---xx   flac  0.5288  gd70-10-31s1t01.flac
     4:54.20       51908684 B   ---   --   ---xx   flac  0.5321  gd70-10-31s1t02.flac
     4:26.55       47051804 B   ---   --   ---xx   flac  0.4875  gd70-10-31s1t03.flac
     4:30.70       47792684 B   ---   --   ---xx   flac  0.5100  gd70-10-31s1t04.flac
     4:03.11       42891116 B   ---   --   ---xx   flac  0.5163  gd70-10-31s1t05.flac
     5:19.09       56292812 B   ---   --   ---xx   flac  0.5338  gd70-10-31s1t06.flac
     4:29.70       47616284 B   ---   --   ---xx   flac  0.5307  gd70-10-31s1t07.flac
     4:15.40       45076124 B   ---   --   ---xx   flac  0.5176  gd70-10-31s1t08.flac
     2:58.54       31526252 B   ---   --   ---xx   flac  0.5272  gd70-10-31s1t09.flac
     4:18.07       45527708 B   ---   --   ---xx   flac  0.5205  gd70-10-31s1t10.flac
     5:13.27       55276748 B   ---   --   ---xx   flac  0.5231  gd70-10-31s1t11.flac
     4:01.26       42573596 B   ---   --   ---xx   flac  0.5235  gd70-10-31s2t01.flac
     8:53.35       94103564 B   ---   --   ---xx   flac  0.5354  gd70-10-31s2t02.flac
     3:08.13       33193820 B   ---   --   ---xx   flac  0.5219  gd70-10-31s2t03.flac
     4:45.61       50417516 B   ---   --   ---xx   flac  0.5364  gd70-10-31s2t04.flac
     3:28.32       36766508 B   ---   --   ---xx   flac  0.5351  gd70-10-31s2t05.flac
     4:35.53       48634700 B   ---   --   ---xx   flac  0.5051  gd70-10-31s2t06.flac
     6:49.54       72274652 B   ---   --   ---xx   flac  0.5359  gd70-10-31s2t07.flac
     3:57.15       41842124 B   ---   --   ---xx   flac  0.5090  gd70-10-31s2t08.flac
     3:43.60       39478364 B   ---   --   ---xx   flac  0.5002  gd70-10-31s2t09.flac
     5:56.45       62904284 B   ---   --   ---xx   flac  0.4845  gd70-10-31s2t10.flac
     9:18.20       98478284 B   ---   --   ---xx   flac  0.5458  gd70-10-31s2t11.flac
     4:34.47       48444188 B   ---   --   ---xx   flac  0.5400  gd70-10-31s2t12.flac
     6:07.11       64764716 B   ---   --   ---xx   flac  0.5279  gd70-10-31s2t13.flac
     4:03.56       42996956 B   ---   --   ---xx   flac  0.5155  gd70-10-31s3t01.flac
     4:31.73       47976140 B   ---   --   ---xx   flac  0.5083  gd70-10-31s3t02.flac
     5:57.55       63104204 B   ---   --   ---xx   flac  0.5167  gd70-10-31s3t03.flac
     5:29.22       58087388 B   ---   --   ---xx   flac  0.5246  gd70-10-31s3t04.flac
     9:45.13      103224620 B   ---   --   ---xx   flac  0.5270  gd70-10-31s3t05.flac
     4:06.21       43443836 B   ---   --   ---xx   flac  0.5151  gd70-10-31s3t06.flac
     6:31.64       69122972 B   ---   --   ---xx   flac  0.5131  gd70-10-31s3t07.flac
     4:16.11       45184316 B   ---   --   ---xx   flac  0.5438  gd70-10-31s3t08.flac
     5:13.54       55340252 B   ---   --   ---xx   flac  0.5229  gd70-10-31s3t09.flac
     5:11.43       54961580 B   ---   --   ---xx   flac  0.5255  gd70-10-31s4t01.flac
     5:28.42       57958028 B   ---   --   ---xx   flac  0.5421  gd70-10-31s4t02.flac
     3:58.25       42042044 B   ---   --   ---xx   flac  0.5375  gd70-10-31s4t03.flac
    22:53.42      242296028 B   ---   --   ---xx   flac  0.5191  gd70-10-31s4t04.flac
     6:33.45       69431084 B   ---   --   ---xx   flac  0.5453  gd70-10-31s4t05.flac
     4:20.12       45892268 B   ---   --   ---xx   flac  0.5523  gd70-10-31s4t06.flac
     2:54.10       30717164 B   ---   --   ---xx   flac  0.5502  gd70-10-31s4t07.flac
     7:13.51       76501196 B   ---   --   ---xx   flac  0.6088  gd70-10-31s4t08.flac
    15:04.62      159611468 B   ---   --   ---xx   flac  0.5182  gd70-10-31s4t09.flac
     5:52.40       62186924 B   ---   --   ---xx   flac  0.5404  gd70-10-31s4t10.flac
     4:54.52       51983948 B   ---   --   ---xx   flac  0.5520  gd70-10-31s4t11.flac
     5:46.08       61053260 B   ---   --   ---xx   flac  0.5762  gd70-10-31s4t12.flac
     3:06.01       32812796 B   ---   --   ---xx   flac  0.5465  gd70-10-31s4t13.flac
   260:12.07     2753975288 B                            0.5291  (46 files)



Show Checksums
ffp
gd70-10-31s1t01.flac:de34567a40ea1dce0d14af2d7c34f42b
gd70-10-31s1t02.flac:14e3683c5a916c08db74fc38d2cd1576
gd70-10-31s1t03.flac:51f079be9801803d7443c1d206d6817f
gd70-10-31s1t04.flac:8711865b048be706258aa858553984f5
gd70-10-31s1t05.flac:7b328bed9d4b7f902725784ee5ad03c9
gd70-10-31s1t06.flac:f3f1f8a9a8d56d172364e873d22279cc
gd70-10-31s1t07.flac:dd4e6dac1117ea8cc3f3f1caba0d7b41
gd70-10-31s1t08.flac:0f33a6d7b4a7bc2f2dc953450d3051a3
gd70-10-31s1t09.flac:373f771f8f01f1152dd1a4eb77d2f1eb
gd70-10-31s1t10.flac:f3c70417a39e0721407b0f2c53ed51d0
gd70-10-31s1t11.flac:1836d01449cd18ee3b8ab384e50ece04
gd70-10-31s2t01.flac:850a6e40e4896c3f0504d4e6d4a1291c
gd70-10-31s2t02.flac:a867d1e589b42fc1f3b963353e2bdffa
gd70-10-31s2t03.flac:c53114ebbbca57a55635543e7c8d209f
gd70-10-31s2t04.flac:d9e2e2f018ae6e6564a824f44a9b5230
gd70-10-31s2t05.flac:e3e7f0af2e325131f10c9ee1eb9021e4
gd70-10-31s2t06.flac:d3935b442da0133c1fea1d47eb52d4c8
gd70-10-31s2t07.flac:bb34d590cd6a6243f4d158c24ee9756e
gd70-10-31s2t08.flac:1fb89dd4606bb918e280579645b5db07
gd70-10-31s2t09.flac:7f24d6c8618e56d9e884dd2af7200bf3
gd70-10-31s2t10.flac:cc92a935cf1e7921e4989f957f72a448
gd70-10-31s2t11.flac:aa85237f016860e12cbe62501084f549
gd70-10-31s2t12.flac:f14e4353170288c83bc3f007da4e18d8
gd70-10-31s2t13.flac:08cac996a8bc9caa600808d1b75f7354
gd70-10-31s3t01.flac:b95da036cc33d7a021f4c4977032254b
gd70-10-31s3t02.flac:19fc87d78567630e17be2c2153a6ef1a
gd70-10-31s3t03.flac:aa767e43fd3e13ebe52aeef952caf641
gd70-10-31s3t04.flac:9f9ad590c88d5e3ea44cda84af8533f6
gd70-10-31s3t05.flac:4ff6dc19f7c58c0813aa2641f49446a0
gd70-10-31s3t06.flac:8eead7acbf65bdfd81ad6fe62335c841
gd70-10-31s3t07.flac:bfb94a80f4be22cc3aa8b0abc9fdf5e5
gd70-10-31s3t08.flac:03f050cd70d28ff15c3fe4cd4d632a62
gd70-10-31s3t09.flac:31d6c1bb126b47e6f162799c2220abf3
gd70-10-31s4t01.flac:6a1ebd7f3ce5e4def3f11b13bc76fa7b
gd70-10-31s4t02.flac:1ab4ad833dd6fffb2214ba3bcb488331
gd70-10-31s4t03.flac:32a0f58c7c884e4d5987699d6b69b64a
gd70-10-31s4t04.flac:1ea1104156511e8ceee0c18fa6086df8
gd70-10-31s4t05.flac:8d33e24b550edf0e31029d231452c28c
gd70-10-31s4t06.flac:408d5be4f7505e5b90c7a0c333744db2
gd70-10-31s4t07.flac:661fc88bdb7d03106ce017d9d3b7dad3
gd70-10-31s4t08.flac:475c107c6beec8aa6b97481a6e605dc1
gd70-10-31s4t09.flac:1f209a0f0cd6bc3918c21d595bd63d27
gd70-10-31s4t10.flac:04ba09231d2a742755a43d50e7b29d8e
gd70-10-31s4t11.flac:b7167a354dcfec94e1df63a7a14d1cb3
gd70-10-31s4t12.flac:fb9994535c7c7a0f2181e2aa9a250f47
gd70-10-31s4t13.flac:45d6d9d3ba5529486f15ee5a27e11e33
flac-md5
92f783d7d13a71b58bc190c1d65c63be *gd70-10-31s1t01.flac
6c373b6e625a071bcda55b8e16fb5710 *gd70-10-31s1t02.flac
ae178540c11e33e5aa1cd618edca62b7 *gd70-10-31s1t03.flac
3a225821b23751dc3487d0fc0a0a2c60 *gd70-10-31s1t04.flac
520ad7252a7726fb7545e3adf8dab14f *gd70-10-31s1t05.flac
e529620d64f2fb8c75cd56614f69054b *gd70-10-31s1t06.flac
cb2b0e44cbca248787903d3d39c78dbf *gd70-10-31s1t07.flac
37e47e315be0fbbb164a2b2d497ff386 *gd70-10-31s1t08.flac
fce9487d7711a939a0e21ec2fb36e23d *gd70-10-31s1t09.flac
5ddbcbb17643e516ebf1b0a12fc4be71 *gd70-10-31s1t10.flac
9893dbe9f689740180ccbf5531e03a6b *gd70-10-31s1t11.flac
07476dc64459a2c293a136e2013167db *gd70-10-31s2t01.flac
6454e564ed39a90c681269f6d5b80a56 *gd70-10-31s2t02.flac
7d15a7d6565f2b209a2d6ec3be63c5b0 *gd70-10-31s2t03.flac
545685dea4259214070f200795d688e2 *gd70-10-31s2t04.flac
51ac892f797ab3e27fc09af706f687ef *gd70-10-31s2t05.flac
68113d7ec78a4f467e49af422ce75d84 *gd70-10-31s2t06.flac
eddfc432903ecaf18653fc8b572dfe97 *gd70-10-31s2t07.flac
b7afba2d6230514ef3fe8f10cfcc534e *gd70-10-31s2t08.flac
7b24aa0c89eab8dd30ed59cc602aec4a *gd70-10-31s2t09.flac
4c6445289b840a337184fcf6381bb9cb *gd70-10-31s2t10.flac
7458fef7311cb27ff1a26a834fb7c33f *gd70-10-31s2t11.flac
80e2ecdc6c89d248c6b8542e4ee24ef3 *gd70-10-31s2t12.flac
6fad562faebd72c3a799e1903430d218 *gd70-10-31s2t13.flac
347124fe8e08bcb2f1684e16aa1b5061 *gd70-10-31s3t01.flac
4b246f8b918e2d140323565db89b2f91 *gd70-10-31s3t02.flac
9afa586e9bd309965619b186db765687 *gd70-10-31s3t03.flac
ded7d32e062ecaff1183a26295ebb225 *gd70-10-31s3t04.flac
ecdd4bda0e963c69f74aaf7d7567b5a2 *gd70-10-31s3t05.flac
920f98659a407b24e77a2a2cbf902e0b *gd70-10-31s3t06.flac
f7d588ce84aa8fe3ca7d9dcee12dfd55 *gd70-10-31s3t07.flac
f8fba39a0ab32ff645b70e32f59b4c77 *gd70-10-31s3t08.flac
05bf7f111ee1f4e6bd9e194d8feab2f3 *gd70-10-31s3t09.flac
3e520141016290e11620b7b07ed9cf65 *gd70-10-31s4t01.flac
dba70ab124b2a4fd6412056bc45a37b8 *gd70-10-31s4t02.flac
e9146def81f0182c64f88e4e35beaf85 *gd70-10-31s4t03.flac
6b0f3fe3016ce2a0f651e14fc728a254 *gd70-10-31s4t04.flac
7bd57c3ce258d490e09d0983e4e8cd3a *gd70-10-31s4t05.flac
a31b444392e222b98380711c833c11c9 *gd70-10-31s4t06.flac
c51f24a46934f7ff0695dc30b439707d *gd70-10-31s4t07.flac
7d66385fcc413fa644e9211292aef660 *gd70-10-31s4t08.flac
e52990c87d3491ff735f332f6c11e073 *gd70-10-31s4t09.flac
00a614d3284a8f2106458ca7313be7ba *gd70-10-31s4t10.flac
1d0978c7a00d78e29472a79679dbba9b *gd70-10-31s4t11.flac
00e290877f846a868f18936c97d29c2c *gd70-10-31s4t12.flac
424cb90b1010c99b2db81f8f6633734c *gd70-10-31s4t13.flac

Comments
Add Comment
Other Sources (comments)
early electric; SBD > Reel... (1) flac16/48kHz;... (1)
Date User Comment
09/20/2012 charliemiller s1t09 is actually called "I'm In Love With You".