Browse Collections Artists Sources   Search Dates

Add Show    List Management    Help


Grateful Dead 08/31/81
Aladdin Theater, Las Vegas, NV
Comments Add Comment    Source Collectors    Add to Collection    Add to Want List    History
Source # 122085 Other Sources
Entered by Matt Vernon
Checksums flac-md5 , ffp
Disc Counts 0 / 0
Media Size Compressed: 1.06 GB (1140232937 bytes)
Uncompressed: 1.81 GB (1940822020 bytes)
Date Circulated
Date Added
09/19/2012
09/19/2012
Source Summary flac16; 2 source matrix: Soundboard (shnid=110200) SBD -> Cassette Master -> ? -> Cassette -> CD -> Adobe Audition v3.0 -> Samplitude Professional and Audience (shnid=91893) from 1st gen cassette, unknown mics, unknown recorder; unknown taper 
  Archive
Source Information - Download Text | Download Zip
Grateful Dead
August 31, 1981
Aladdin Hotel Theatre
Las Vegas, NV

-------------------------------------------------------------------------------------------

2 source matrix:

Soundboard (shnid=110200)
--------------------------------------------------------------------------------------
gd1981-08-31.sbd.miller.110200.flac16


Recording Info:
SBD -> Cassette Master -> ? -> Cassette -> CD

Transfer Info:
CD -> Adobe Audition v3.0 -> Samplitude Professional v11.1 -> FLAC
(3 Discs Audio / 2 Discs FLAC)

All Transfers and Mastering By Charlie Miller
[email protected]
October 9, 2010

Patch Info:
Unknown Mics -> Cassette Master -> Cassette -> FLAC (shnid=91893) supplies:
Feel Like A Stranger (0:00 - 2:07)
Cassidy (1:49 - end of track)
Althea (0:00 - 2:20)
Morning Dew (2:23 - end of track)
Playing In The Band Reprise (complete track)
Around And Around (complete track)
Johnny B. Goode (complete track)
U.S. Blues (complete track)

Notes:
-- Set 2 is seamless
-- Thanks to Joe Browning for the source discs
-- Thanks to Joe B. Jones for his help with the pitch correction


Audience (shnid=91893)
-----------------------------------------------------------------------------------------
gd1981-08-31.aud.unknown.91893.sbeok.flac16

Audience
from 1st gen cassette
unknown mics
unknown recorder
unknown taper
---------------------------------------------------------------------------------------

---Thank you Joe Browning for providing the SBD discs.
---Thank you Joe B. Jones for the pitch correction on the SBD.
---Thank you Charlie Miller for your work on the SBD,
---Thank you unknown mystery people for the work on, and providing the AUD recording.
---Thanks to germain for everything;seeding,encouragement,advice and tutelage

Matrix by dusborne using Adobe Audition CS6 and Audacity 2.0

09-14-2012
----------------------------------------------------------------------------------------

Set 1

101-s1t01 - Feel Like a Stranger
102-s1t02 - Jack-A-Roe ->
103-s1t03 - El Paso
104-s1t04 - Candyman ->
105-s1t05 - Little Red Rooster
106-s1t06 - Loser
107-s1t07 - Cassidy
108-s1t08 - Althea
109-s1t09 - Let It Grow ->
110-s1t10 - Deal

Set 2

201-s2t01 - Lost Sailor ->
202-s2t02 - Saint of Circumstance ->
203-s2t03 - Scarlet Begonias ->
204-s2t04 - Fire On the Mountain
205-s2t05 - Playing in the Band ->
206-s2t06 - Drums ->
207-s2t07 - Space ->
208-s2t08 - Never Trust a Woman ->
209-s2t09 - Morning Dew ->
210-s2t10 - Playing in the Band Reprise ->
211-s2t11 - Around & Around ->
212-s2t12 - Johnny B. Goode

Encore
213-d3t13 - U.S. Blues

-----------------------------------------------------------------------------------------

Notes:

---The AUD was paused between non-sequential songs.
---The first 2:17 of Stranger is AUD only.
---AUD only patch during Cassidy for 3:35.
---AUD only patch during Althea for 2:24.
---SBD only patch for 3 seconds during Never Trust a Woman due to AUD tale flip.
---The rest of the show is AUD only from 2:23 into Morning Dew, see Charlie's notes above.

-----------------------------------------------------------------------------------------------


Tagging notes:
Show information is embedded within the header of each flac file.
It will display on any player capable of directly playing flac
files. If converted to wav during processing, all tags will be
stripped, however audio data will remain unaffected. If you must
transcode to a lossy format, do so directly Flac > Lossy.
Use ffp to validate audio integrity.
Md5 values will change if tagging is altered.

dusborne 09-14-2012
-----------------------------------------------------------------------------------------

length     expanded size    cdr  WAVE problems  fmt   ratio  filename
     8:48.00       93139244 B   ---   --   ---xx   flac  0.5893  gd81-08-31s1t01.flac
     4:12.00       44452844 B   ---   --   ---xx   flac  0.5965  gd81-08-31s1t02.flac
     7:20.00       77616044 B   ---   --   ---xx   flac  0.5586  gd81-08-31s1t03.flac
     6:25.00       67914044 B   ---   --   ---xx   flac  0.5914  gd81-08-31s1t04.flac
     8:44.37       92520668 B   ---   --   ---xx   flac  0.6089  gd81-08-31s1t05.flac
     8:48.38       93228620 B   ---   --   ---xx   flac  0.5879  gd81-08-31s1t06.flac
     5:26.00       57506444 B   ---   --   ---xx   flac  0.6083  gd81-08-31s1t07.flac
    10:40.00      112896044 B   ---   --   ---xx   flac  0.5656  gd81-08-31s1t08.flac
    11:30.00      121716044 B   ---   --   ---xx   flac  0.6159  gd81-08-31s1t09.flac
     8:13.52       87087548 B   ---   --   ---xx   flac  0.6062  gd81-08-31s1t10.flac
     7:16.00       76910444 B   ---   --   ---xx   flac  0.5747  gd81-08-31s2t01.flac
     7:22.00       77968844 B   ---   --   ---xx   flac  0.6073  gd81-08-31s2t02.flac
    13:27.00      142354844 B   ---   --   ---xx   flac  0.5925  gd81-08-31s2t03.flac
    11:35.30      122668604 B   ---   --   ---xx   flac  0.5828  gd81-08-31s2t04.flac
    11:10.45      118293884 B   ---   --   ---xx   flac  0.5949  gd81-08-31s2t05.flac
     7:45.00       82026044 B   ---   --   ---xx   flac  0.5630  gd81-08-31s2t06.flac
     8:12.00       86788844 B   ---   --   ---xx   flac  0.5407  gd81-08-31s2t07.flac
     7:52.00       83260844 B   ---   --   ---xx   flac  0.5756  gd81-08-31s2t08.flac
    11:45.38      124451420 B   ---   --   ---xx   flac  0.5726  gd81-08-31s2t09.flac
     3:15.00       34398044 B   ---   --   ---xx   flac  0.5792  gd81-08-31s2t10.flac
     3:54.15       41312924 B   ---   --   ---xx   flac  0.6028  gd81-08-31s2t11.flac
     4:12.60       44593964 B   ---   --   ---xx   flac  0.6286  gd81-08-31s2t12.flac
     5:27.14       57715772 B   ---   --   ---xx   flac  0.6013  gd81-08-31s2t13.flac
   183:22.29     1940822020 B                            0.5875  (23 files)




Show Checksums
flac-md5
a521222cc59187459b8ebcae0c679765 *gd81-08-31s1t01.flac
ddabd7dfc80a1b3663a603e86ff381aa *gd81-08-31s1t02.flac
b64a2c3812d04dc2ae9a5340bfdac69a *gd81-08-31s1t03.flac
a12c841bf633b19285408d0766670ac7 *gd81-08-31s1t04.flac
3375f1262035c76663522627f0f0357a *gd81-08-31s1t05.flac
ce32b795a5025230fc7797e338b7a4e2 *gd81-08-31s1t06.flac
dbb5915c5530b6d3426b8e7365ae5753 *gd81-08-31s1t07.flac
9f272f7b0fc9e4091618c390205f81ff *gd81-08-31s1t08.flac
e4dacd9271694922f3373cea69636c09 *gd81-08-31s1t09.flac
79aa1ea0ec195801b3c6bfafd4423add *gd81-08-31s1t10.flac
f994d8a50ca2370531e0bf90d2414908 *gd81-08-31s2t01.flac
3e4ca9e09ec0429f887ba8a8f8e223f0 *gd81-08-31s2t02.flac
88279153c7b7bbb1a5856c2a002463f7 *gd81-08-31s2t03.flac
86bb9cf79d45e55dddf58024d8fdb70e *gd81-08-31s2t04.flac
3bb3f3a2214b62dfdb2a2250a728f80d *gd81-08-31s2t05.flac
b2fdd3554ce4874eb470a2e1525e5a69 *gd81-08-31s2t06.flac
ff1ad9fe3da8b69b5bce365245e43d14 *gd81-08-31s2t07.flac
6dda31d27cccbd484c8a788517509b6c *gd81-08-31s2t08.flac
67c93b951eb43e24fce3f7bf87ebe1fb *gd81-08-31s2t09.flac
5f21a57cd1886d7149d2abf6856181f6 *gd81-08-31s2t10.flac
f0e8faa4ad83334be55e41894ae1534e *gd81-08-31s2t11.flac
3ee0c027b9ed0904107638410173c8ed *gd81-08-31s2t12.flac
c7c1554d868bf6e3f9eb0f77d1d63881 *gd81-08-31s2t13.flac
ffp
gd81-08-31s1t01.flac:fc066426b35165ccd0d29c80d6454497
gd81-08-31s1t02.flac:64d2497ac9fb105d80817113ccaace23
gd81-08-31s1t03.flac:aa3677dfbb5361682744631b208d9622
gd81-08-31s1t04.flac:59bfdfbcb1a29a9033d69448ed3a5c2a
gd81-08-31s1t05.flac:4988ee49633e517af35b943e325131ad
gd81-08-31s1t06.flac:2e3675bc3686ad4ac406168dbab48f4a
gd81-08-31s1t07.flac:aa1d53a10e02d76d3d7df319289a7ce6
gd81-08-31s1t08.flac:0c38031628990fa5b95d301951d5c89e
gd81-08-31s1t09.flac:4a1eaf93d87bf45b437c620d916a82eb
gd81-08-31s1t10.flac:7429b4fbad04aed1e56cc30a454defd3
gd81-08-31s2t01.flac:fbe63131069899bf25290ed1886ee21d
gd81-08-31s2t02.flac:8afb1f7b0b2e632f4f40a8ddfaefd76c
gd81-08-31s2t03.flac:5e8f4792c1e99eef4307f05bafd14eed
gd81-08-31s2t04.flac:531e7236eedebc07dc8d7c401af83800
gd81-08-31s2t05.flac:60cf0bfcf04ed209e064a3f7fde77954
gd81-08-31s2t06.flac:4b65eb2bedfc264c7d0f425fe538774a
gd81-08-31s2t07.flac:201daed675efe1d06ac3686ad509d25a
gd81-08-31s2t08.flac:173394837050bc660f58cf559ebc6805
gd81-08-31s2t09.flac:d870089b63276a6c3b04cff7ac8f7bc7
gd81-08-31s2t10.flac:4acf806c9e3a45c6e6403ea6ec01cb41
gd81-08-31s2t11.flac:03473565d7aa1a390cdf5afc8134717f
gd81-08-31s2t12.flac:d3f2032312953dcdfee7a705b10b82d2
gd81-08-31s2t13.flac:1eaa2ec02089e4e37be9ba1169d34183

Comments
Add Comment
Other Sources (comments)
AUD>MC>DAT>CDR; Certified... (1) flac16; Recording... (1) flac16; Audience... (0) flac16; Recording... (0) flac16; Source Info:... (0) flac24; Source Info:... (0)
Date User Comment