Browse Collections Artists Sources   Search Dates

Add Show    List Management    Help


Grateful Dead 11/06/87
Henry J Kaiser Convention Center, Oakland, CA
Comments Add Comment    Source Collectors    Add to Collection    Add to Want List    History
Source # 122166 Other Sources
Entered by Matt Vernon
Checksums ffp , flac-md5
Disc Counts 0 / 0
Media Size Compressed: 917.9 MB (962486314 bytes)
Uncompressed: 1.42 GB (1523701744 bytes)
Date Circulated
Date Added
09/28/2012
09/28/2012
Source Summary flac16; Recording Info: SBD -> Cassette Master (TDK MA-XG90); Transfer Info: Cassette Master (Tascam 122mkII) -> Apogee MiniMe (24bit/48k) -> Samplitude Professional v9.02 -> FLAC/16; Remastering Info: FLAC -> Adobe Audition v3.0 -> Samplitude Professional v11.2.1 -> FLAC; All Transfers and Mastering By Charlie Miller 
  Archive
Source Information - Download Text | Download Zip
Grateful Dead - November 6, 1987
Henry J. Kaiser Convention Center - Oakland, CA

Recording Info:
SBD -> Cassette Master (TDK MA-XG90)

Transfer Info:
Cassette Master (Tascam 122mkII) -> Apogee MiniMe (24bit/48k) ->
Samplitude Professional v9.02 -> FLAC/16

Remastering Info:
FLAC -> Adobe Audition v3.0 -> Samplitude Professional v11.2.1 -> FLAC
(2 Discs Audio / 1 DVD FLAC)

All Transfers and Mastering By Charlie Miller
[email protected]
September 27, 2012

Notes:
-- Disc change is seamless
-- Two SBD Cassette Masters were used to make this show complete
-- Thanks to Paul Scotton and Joani Walker for the tapes
-- Thanks to Joe B. Jones for his help with the pitch correction

Set 1:
d1t01 - Tuning
d1t02 - Big Boss Man
d1t03 - Feel Like A Stranger
d1t04 - It Must Have Been The Roses
d1t05 - New Minglewood Blues
d1t06 - When Push Comes To Shove
d1t07 - Me And My Uncle ->
d1t08 - Cumberland Blues
d1t09 - Let It Grow

Set 2:
d1t10 - Tuning
d1t11 - Scarlet Begonias ->
d1t12 - Hell In A Bucket
d2t01 - He's Gone ->
d2t02 - Drums ->
d2t03 - Space ->
d2t04 - The Wheel ->
d2t05 - Gimme Some Lovin' ->
d2t06 - Morning Dew ->
d2t07 - All Along The Watchtower

Encore:
d2t08 - Black Muddy River


SHNTOOL OUTPUT:
    length     expanded size    cdr  WAVE problems  fmt   ratio  filename
     1:16.17       13446428 B   ---   --   ---xx   flac  0.5668  gd87-11-06d1t01.flac
     7:06.37       75233468 B   ---   --   ---xx   flac  0.6156  gd87-11-06d1t02.flac
    10:41.60      113213564 B   ---   --   ---xx   flac  0.6543  gd87-11-06d1t03.flac
     6:29.50       68737244 B   ---   --   ---xx   flac  0.6377  gd87-11-06d1t04.flac
     8:03.35       85283564 B   ---   --   ---xx   flac  0.6490  gd87-11-06d1t05.flac
     6:14.63       66121820 B   ---   --   ---xx   flac  0.6376  gd87-11-06d1t06.flac
     3:07.16       33024476 B   ---   --   ---xx   flac  0.6589  gd87-11-06d1t07.flac
     5:26.45       57612284 B   ---   --   ---xx   flac  0.6500  gd87-11-06d1t08.flac
    12:31.27      132539948 B   ---   --   ---xx   flac  0.6485  gd87-11-06d1t09.flac
     0:49.06        8657756 B   ---   --   ---xx   flac  0.5701  gd87-11-06d1t10.flac
     9:12.66       97528076 B   ---   --   ---xx   flac  0.6494  gd87-11-06d1t11.flac
     6:05.34       64466012 B   ---   --   ---xx   flac  0.6642  gd87-11-06d1t12.flac
    11:31.67      122050028 B   ---   --   ---xx   flac  0.6274  gd87-11-06d2t01.flac
    12:36.57      133492508 B   ---   --   ---xx   flac  0.5934  gd87-11-06d2t02.flac
     7:51.64       83234972 B   ---   --   ---xx   flac  0.5905  gd87-11-06d2t03.flac
     4:48.01       50805596 B   ---   --   ---xx   flac  0.6460  gd87-11-06d2t04.flac
     5:14.60       55530764 B   ---   --   ---xx   flac  0.6491  gd87-11-06d2t05.flac
    11:13.38      118806620 B   ---   --   ---xx   flac  0.6083  gd87-11-06d2t06.flac
     6:47.20       71841884 B   ---   --   ---xx   flac  0.6379  gd87-11-06d2t07.flac
     6:48.44       72074732 B   ---   --   ---xx   flac  0.6240  gd87-11-06d2t08.flac
   143:57.57     1523701744 B                            0.6317  (20 files)





Show Checksums
ffp
gd87-11-06d1t01.flac:323934c2a8d01ba21b6f6fcc4997c9fc
gd87-11-06d1t02.flac:750bb43722ad83eb6f8cdb370ea455e9
gd87-11-06d1t03.flac:5e483c3b20d1c6238a9f94ac4ba84f62
gd87-11-06d1t04.flac:6b7d9e2d8b710d582465c79ffac56f01
gd87-11-06d1t05.flac:cf277ad3dce643ddeabfe3a84f98351b
gd87-11-06d1t06.flac:1c2a2599a696255750c08a72e018afc4
gd87-11-06d1t07.flac:47b42be565570499aead8997e1422d64
gd87-11-06d1t08.flac:8694cfb67e4ce044aeb0e5c52a816779
gd87-11-06d1t09.flac:502b68f5cb566b4ba633e9a41b6b32bb
gd87-11-06d1t10.flac:ad52e2dbe5e2a8001b9504a7ea1a83cc
gd87-11-06d1t11.flac:72abb500addb150475a5e5a22b0d65da
gd87-11-06d1t12.flac:04947b8775f5f97a9226c7cf8e12ff01
gd87-11-06d2t01.flac:18e56b4646e520bae46721fb4a3a463d
gd87-11-06d2t02.flac:decfbe0b884fd59c07fbc89ec94f1719
gd87-11-06d2t03.flac:5c794231b698af3021198dd81f52157f
gd87-11-06d2t04.flac:09b3197a9b08b4b11a976cd8c53c55ab
gd87-11-06d2t05.flac:db83cb8376ccd2474ec0b330e01a8a54
gd87-11-06d2t06.flac:72f6a7cf6d9efa2aa1aedaa9d4ed791f
gd87-11-06d2t07.flac:bb221c3ced732ee9ef5d83a2eb35c77e
gd87-11-06d2t08.flac:3855d1a86ae5fe4d1d95c043351bdd80
flac-md5
b34c6917018e1108abeb2aed6cb6ad7e *gd87-11-06d1t01.flac
f402d77488c5c5194ef0ef40bcec43af *gd87-11-06d1t02.flac
02755cb15c7e7d384dc30b3940633d0d *gd87-11-06d1t03.flac
907da23cfb3f63c311e291600e9ab685 *gd87-11-06d1t04.flac
e883d0bceae760227adacba9364af583 *gd87-11-06d1t05.flac
8411e63377b2d8f4362695d93b29b7ce *gd87-11-06d1t06.flac
24ce1c5a30e22c454b2f555ac3ef17b8 *gd87-11-06d1t07.flac
ee5f6d5c04fa5d5d4a9a083f39f25dbb *gd87-11-06d1t08.flac
0b2e0f161632d694865d7024d6d45dc5 *gd87-11-06d1t09.flac
2fdf4d1f69bd263f8f4b2bb6101b258c *gd87-11-06d1t10.flac
be6b0bf4681c6b288681dae3ab57e4f4 *gd87-11-06d1t11.flac
7fed4cbc8ab167ad6ade5ada9ec5ad7e *gd87-11-06d1t12.flac
d11cc42496932f0be956edf610bbf74f *gd87-11-06d2t01.flac
0c68a3d6554e4b2e39ddc5626600ab82 *gd87-11-06d2t02.flac
d214ee0fa0a60e887fee102133c0d25c *gd87-11-06d2t03.flac
b68386aa9a68607634807642135e90f4 *gd87-11-06d2t04.flac
44799ed93a23eea1d8397519be26b0ba *gd87-11-06d2t05.flac
fbea5ee4ed5c5fd70e051e482b682bd8 *gd87-11-06d2t06.flac
516d4b773a76ada7256bed0d09df7fb3 *gd87-11-06d2t07.flac
d9ba441216fa2ce7dd1ca746b3d7fa57 *gd87-11-06d2t08.flac

Comments
Add Comment
Other Sources (comments)
SBD>Cm>Dat>Samplitude>Cool... (0) flac16; Recording... (0) flac24; First... (0) flac16; First... (0)
Date User Comment
10/01/2012 cool_breeze The FFPs provided for this fileset are for 11/8/87 (SHNID 122167)!

The correct FFPs for this fileset are:

gd87-11-06d1t01.flac:323934c2a8d01ba21b6f6fcc4997c9fc
gd87-11-06d1t02.flac:750bb43722ad83eb6f8cdb370ea455e9
gd87-11-06d1t03.flac:5e483c3b20d1c6238a9f94ac4ba84f62
gd87-11-06d1t04.flac:6b7d9e2d8b710d582465c79ffac56f01
gd87-11-06d1t05.flac:cf277ad3dce643ddeabfe3a84f98351b
gd87-11-06d1t06.flac:1c2a2599a696255750c08a72e018afc4
gd87-11-06d1t07.flac:47b42be565570499aead8997e1422d64
gd87-11-06d1t08.flac:8694cfb67e4ce044aeb0e5c52a816779
gd87-11-06d1t09.flac:502b68f5cb566b4ba633e9a41b6b32bb
gd87-11-06d1t10.flac:ad52e2dbe5e2a8001b9504a7ea1a83cc
gd87-11-06d1t11.flac:72abb500addb150475a5e5a22b0d65da
gd87-11-06d1t12.flac:04947b8775f5f97a9226c7cf8e12ff01
gd87-11-06d2t01.flac:18e56b4646e520bae46721fb4a3a463d
gd87-11-06d2t02.flac:decfbe0b884fd59c07fbc89ec94f1719
gd87-11-06d2t03.flac:5c794231b698af3021198dd81f52157f
gd87-11-06d2t04.flac:09b3197a9b08b4b11a976cd8c53c55ab
gd87-11-06d2t05.flac:db83cb8376ccd2474ec0b330e01a8a54
gd87-11-06d2t06.flac:72f6a7cf6d9efa2aa1aedaa9d4ed791f
gd87-11-06d2t07.flac:bb221c3ced732ee9ef5d83a2eb35c77e
gd87-11-06d2t08.flac:3855d1a86ae5fe4d1d95c043351bdd80

10/01/2012 charliemiller That's what happens when you work on too many shows at once. Thanks for catching that.
10/01/2012 Wharfrat73 I updated the .ffp checksum.