Browse Collections Artists Sources   Search Dates

Add Show    List Management    Help


Grateful Dead 11/08/87
Henry J. Kaiser Convention Center, Oakland, CA
Comments Add Comment    Source Collectors    Add to Collection    Add to Want List    History
Source # 122167 Other Sources
Entered by Matt Vernon
Checksums ffp , flac-md5
Disc Counts 0 / 0
Media Size Compressed: 895.34 MB (938827476 bytes)
Uncompressed: 1.37 GB (1465757916 bytes)
Date Circulated
Date Added
09/28/2012
09/28/2012
Source Summary flac16; Recording Info: SBD -> Cassette Master (TDK MA-XG90); Transfer Info: Cassette Master (Tascam 122mkII) -> Apogee MiniMe (24bit/48k) -> Samplitude Professional v9.02 -> FLAC/16; Remastering Info:FLAC -> Adobe Audition v3.0 -> Samplitude Professional v11.2.1 -> FLAC; All Transfers and Mastering By Charlie Miller 
  Archive
Source Information - Download Text | Download Zip
Grateful Dead - November 8, 1987
Henry J. Kaiser Convention Center - Oakland, CA

Recording Info:
SBD -> Cassette Master (TDK MA-XG90)

Transfer Info:
Cassette Master (Tascam 122mkII) -> Apogee MiniMe (24bit/48k) ->
Samplitude Professional v9.02 -> FLAC/16

Remastering Info:
FLAC -> Adobe Audition v3.0 -> Samplitude Professional v11.2.1 -> FLAC
(2 Discs Audio / 1 DVD FLAC)

All Transfers and Mastering By Charlie Miller
[email protected]
September 27, 2012

Patch Info:
(FOB) Schoeps CMC4/MK4 -> PCM -> Sound Forge -> CD supplies:
West LA Fadeaway (0:00 - 0:09)
Space (0:00 - 0:13)

Notes:
-- Encore on end of 1st Set to fit show on 2 discs
-- Encore can be re-joined with 2nd Set seamlessly
-- Thanks to Paul Scotton and Joani Walker for the tapes
-- Thanks to Joe B. Jones for his help with the pitch correction

Set 1:
d1t01 - Iko Iko
d1t02 - Little Red Rooster
d1t03 - Stagger Lee
d1t04 - Mexicali Blues ->
d1t05 - Big River
d1t06 - West L.A. Fadeaway
d1t07 - The Music Never Stopped ->
d1t08 - Don't Ease Me In

Set 2:
d2t01 - China Cat Sunflower ->
d2t02 - I Know You Rider ->
d2t03 - Looks Like Rain ->
d2t04 - Crazy Fingers ->
d2t05 - Truckin' ->
d2t06 - Drums ->
d2t07 - Space ->
d2t08 - Spanish Jam ->
d2t09 - The Other One ->
d2t10 - Stella Blue ->
d2t11 - Turn On Your Lovelight

Encore:
d1t09 - Just Like Tom Thumb's Blues ->
d1t10 - Touch Of Grey


SHNTOOL OUTPUT:
    length     expanded size    cdr  WAVE problems  fmt   ratio  filename
     6:42.29       70981052 B   ---   --   ---xx   flac  0.6602  gd87-11-08d1t01.flac
     9:09.13       96874220 B   ---   --   ---xx   flac  0.6483  gd87-11-08d1t02.flac
     6:14.07       65990108 B   ---   --   ---xx   flac  0.6333  gd87-11-08d1t03.flac
     4:43.23       49975340 B   ---   --   ---xx   flac  0.6647  gd87-11-08d1t04.flac
     5:50.26       61801196 B   ---   --   ---xx   flac  0.6533  gd87-11-08d1t05.flac
     7:23.68       78305180 B   ---   --   ---xx   flac  0.6533  gd87-11-08d1t06.flac
     6:50.52       72446348 B   ---   --   ---xx   flac  0.6628  gd87-11-08d1t07.flac
     3:33.15       37608524 B   ---   --   ---xx   flac  0.6696  gd87-11-08d1t08.flac
     4:32.26       48041996 B   ---   --   ---xx   flac  0.6470  gd87-11-08d1t09.flac
     5:48.53       61511900 B   ---   --   ---xx   flac  0.6622  gd87-11-08d1t10.flac
     6:43.05       71101004 B   ---   --   ---xx   flac  0.6480  gd87-11-08d2t01.flac
     5:20.62       56593868 B   ---   --   ---xx   flac  0.6635  gd87-11-08d2t02.flac
     8:01.19       84893132 B   ---   --   ---xx   flac  0.6435  gd87-11-08d2t03.flac
     8:12.73       86960540 B   ---   --   ---xx   flac  0.6506  gd87-11-08d2t04.flac
     6:50.56       72455756 B   ---   --   ---xx   flac  0.6718  gd87-11-08d2t05.flac
    10:12.50      108074444 B   ---   --   ---xx   flac  0.5941  gd87-11-08d2t06.flac
     3:53.50       41218844 B   ---   --   ---xx   flac  0.5453  gd87-11-08d2t07.flac
     3:41.10       39007964 B   ---   --   ---xx   flac  0.5604  gd87-11-08d2t08.flac
     9:16.73       98250140 B   ---   --   ---xx   flac  0.6455  gd87-11-08d2t09.flac
     8:46.17       92826428 B   ---   --   ---xx   flac  0.6130  gd87-11-08d2t10.flac
     6:41.44       70839932 B   ---   --   ---xx   flac  0.6384  gd87-11-08d2t11.flac
   138:29.21     1465757916 B                            0.6405  (21 files)



Show Checksums
ffp
gd87-11-08d1t01.flac:c6216a05c3012558e4a321591b01e684
gd87-11-08d1t02.flac:570e7b51190525e8544d814c238fe20b
gd87-11-08d1t03.flac:73e4f4b6fb26956133b82992eb2faf0f
gd87-11-08d1t04.flac:ca5271c588744c18bdfdf54cc9ec7fbd
gd87-11-08d1t05.flac:8e0f61550e2546c4440e05b0af479a29
gd87-11-08d1t06.flac:7e0cd8d7670e05e8c066de91576f0195
gd87-11-08d1t07.flac:e0db588570a5af3a5b251d89035375d6
gd87-11-08d1t08.flac:fbade4bb822ac84e45f9d37543173e8f
gd87-11-08d1t09.flac:bd109e306e9f402ee212416454baf5cb
gd87-11-08d1t10.flac:aaaa43232afbcdd4ba2601499aeecb5b
gd87-11-08d2t01.flac:a04481b75bfeaae7be2f928535b96e8d
gd87-11-08d2t02.flac:61f1c2c31caa7bbcfbccf0e66b1c44b6
gd87-11-08d2t03.flac:1e3b61e9bbbad36e154ec1adc7d7dc66
gd87-11-08d2t04.flac:b7b27b3a0ba900ff737e2d48f5300972
gd87-11-08d2t05.flac:e93513488fd8854a8b3ccb95bdf1590b
gd87-11-08d2t06.flac:e8fc7f7291470a57c41850321f038945
gd87-11-08d2t07.flac:0b9765f4a84b1e0ca9df451793f58d24
gd87-11-08d2t08.flac:d606d121dcb9f3ec0ce47e2eef469afb
gd87-11-08d2t09.flac:71a4ad46c67c350ce89b10f63fa57a7e
gd87-11-08d2t10.flac:40449d7163910a8e65a92e12e9024fa1
gd87-11-08d2t11.flac:e3d90c11b2e31e6c5595d1b58af6cc9b
flac-md5
f792a02aa1a0c340c26db8a3445f329f *gd87-11-08d1t01.flac
b60bea083fc23c23415bfdd4c45de244 *gd87-11-08d1t02.flac
1dc5513da79501a91f58965c2e59f8bb *gd87-11-08d1t03.flac
28fa3a58eefb0e92dad081ceba3b90e8 *gd87-11-08d1t04.flac
9873e14622cdc0a39629e125d2612441 *gd87-11-08d1t05.flac
f2c59134b0a517ce3fd52f871fef2560 *gd87-11-08d1t06.flac
ecf5fa60d987f1c00559257d09a9501f *gd87-11-08d1t07.flac
542434720939e205b688c93c95690522 *gd87-11-08d1t08.flac
fd548617b043f0edc9520905ccb134cf *gd87-11-08d1t09.flac
e79e0e286772c500bcee041a6bbfd751 *gd87-11-08d1t10.flac
1afb9eaa2d2811d3ebb47cc8e6278892 *gd87-11-08d2t01.flac
ebedbf94384f26b0d56a2a2fd122b27b *gd87-11-08d2t02.flac
524ae3e48e2b3cc31a3c0ac1c36e68a7 *gd87-11-08d2t03.flac
2158ed0e9e738cd3d967b64331bef077 *gd87-11-08d2t04.flac
0b53e1a8df4268734bb1d8c86a2c14d9 *gd87-11-08d2t05.flac
2114d7d1ef1d7d960a3516f5eb52d871 *gd87-11-08d2t06.flac
6e295a0130fb558bc8fbaa411ef868c6 *gd87-11-08d2t07.flac
1b51f1618681bf57443d89df3b3218eb *gd87-11-08d2t08.flac
794db27bcdcff5d523aa4608d9e1b174 *gd87-11-08d2t09.flac
ed59a80bf4f900a06e66820498a755f4 *gd87-11-08d2t10.flac
480b8db24d4a451f0f39aefd917f77ba *gd87-11-08d2t11.flac

Comments
Add Comment
Other Sources (comments)
FOB, Schoeps CMC44 (110'... (0) flac16; Recording... (0)
Date User Comment