Browse Collections Artists Sources   Search Dates

Add Show    List Management    Help


Grateful Dead 09/27/81
Capital Centre, Landover, MD
Comments Add Comment    Source Collectors    Add to Collection    Add to Want List    History
Source # 122188 Other Sources
Entered by Matt Vernon
Checksums ffp , flac-md5
Disc Counts 0 / 0
Media Size Compressed: 946.79 MB (992784768 bytes)
Uncompressed: 1.56 GB (1671760276 bytes)
Date Circulated
Date Added
09/30/2012
09/30/2012
Source Summary flac16; Recording Info: SBD -> Cassette Master -> PCM -> Dat -> CD; Transfer Info: CD -> Adobe Audition v3.0 -> Samplitude Professional v11.2.1 -> FLAC; All Transfers and Mastering By Charlie Miller 
  Archive
Source Information - Download Text | Download Zip
Grateful Dead - September 27, 1981
Capital Centre - Landover, MD

Recording Info:
SBD -> Cassette Master -> PCM -> Dat -> CD

Transfer Info:
CD -> Adobe Audition v3.0 -> Samplitude Professional v11.2.1 -> FLAC
(3 Discs Audio / 1 DVD FLAC)

All Transfers and Mastering By Charlie Miller
[email protected]
September 29, 2012

Patch Info:
Nakamichi 300 -> Cassette Master -> Cassette -> CD -> FLAC (shnid=110722) supplies:
Drums (5:58 - end of track)
Space (0:00 - 0:34)

Notes:
-- Set 2 and Encore are seamless
-- This is a remaster of shnid=8910
-- Numerous corrections were made
-- Thanks to Joe B. Jones for his help with the pitch correction

Set 1:
d1t01 - Jack Straw
d1t02 - Alabama Getaway ->
d1t03 - Promised Land
d1t04 - Candyman ->
d1t05 - Little Red Rooster
d1t06 - Althea
d1t07 - Me And My Uncle ->
d1t08 - Mexicali Blues
d1t09 - It Must Have Been The Roses
d1t10 - Lost Sailor ->
d1t11 - Saint Of Circumstance

Set 2:
d2t01 - China Cat Sunflower ->
d2t02 - I Know You Rider
d2t03 - Man Smart (Women are Smarter)
d2t04 - He's Gone ->
d2t05 - Truckin'->
d2t06 - Drums ->
d2t07 - Space ->
d2t08 - Spanish Jam ->
d2t09 - Wharf Rat ->
d2t10 - I Need a Miracle ->
d2t11 - Good Lovin'

Encore:
d3t01 - It's All Over Now, Baby Blue


SHNTOOL OUTPUT:
    length     expanded size    cdr  WAVE problems  fmt   ratio  filename
     7:10.42       75950828 B   ---   --   ---xx   flac  0.6070  gd81-09-27d1t01.flac
     4:41.69       49730732 B   ---   --   ---xx   flac  0.6207  gd81-09-27d1t02.flac
     6:18.21       66728636 B   ---   --   ---xx   flac  0.5889  gd81-09-27d1t03.flac
     6:38.72       70376588 B   ---   --   ---xx   flac  0.5946  gd81-09-27d1t04.flac
     9:58.24      105543692 B   ---   --   ---xx   flac  0.5895  gd81-09-27d1t05.flac
     8:20.06       88214156 B   ---   --   ---xx   flac  0.6050  gd81-09-27d1t06.flac
     3:06.03       32817500 B   ---   --   ---xx   flac  0.6404  gd81-09-27d1t07.flac
     6:35.05       69689804 B   ---   --   ---xx   flac  0.6145  gd81-09-27d1t08.flac
     6:54.37       73116668 B   ---   --   ---xx   flac  0.5878  gd81-09-27d1t09.flac
     7:04.07       74810108 B   ---   --   ---xx   flac  0.5787  gd81-09-27d1t10.flac
     7:10.06       75866156 B   ---   --   ---xx   flac  0.6050  gd81-09-27d1t11.flac
     6:27.12       68295068 B   ---   --   ---xx   flac  0.5982  gd81-09-27d2t01.flac
     6:23.66       67716476 B   ---   --   ---xx   flac  0.5898  gd81-09-27d2t02.flac
     5:54.12       62473868 B   ---   --   ---xx   flac  0.5892  gd81-09-27d2t03.flac
    11:43.42      124108028 B   ---   --   ---xx   flac  0.5981  gd81-09-27d2t04.flac
     9:05.69       96300332 B   ---   --   ---xx   flac  0.6148  gd81-09-27d2t05.flac
     6:14.67       66131228 B   ---   --   ---xx   flac  0.5454  gd81-09-27d2t06.flac
     3:53.05       41113004 B   ---   --   ---xx   flac  0.5344  gd81-09-27d2t07.flac
     4:36.20       48733484 B   ---   --   ---xx   flac  0.5871  gd81-09-27d2t08.flac
     9:25.18       99708380 B   ---   --   ---xx   flac  0.6004  gd81-09-27d2t09.flac
     4:24.43       46670780 B   ---   --   ---xx   flac  0.6180  gd81-09-27d2t10.flac
     8:46.37       92873468 B   ---   --   ---xx   flac  0.5757  gd81-09-27d2t11.flac
     7:03.74       74791292 B   ---   --   ---xx   flac  0.5778  gd81-09-27d3t01.flac
   157:57.07     1671760276 B                            0.5939  (23 files)


Show Checksums
ffp
gd81-09-27d1t01.flac:9f1c0114fcae3f87709fe1bcf4a054fd
gd81-09-27d1t02.flac:00e27e4b53990fc316974f0277c755f8
gd81-09-27d1t03.flac:cfa7280e31ff3cf955aca113a678b515
gd81-09-27d1t04.flac:a7423bd4ed203aac816ecc34b49772d0
gd81-09-27d1t05.flac:3ac520ba02429438360b36f8fd889ec3
gd81-09-27d1t06.flac:c8e0647618a555fd181ef4360fc40b21
gd81-09-27d1t07.flac:e1f248f1583d3bc9bb0ba4178155c7d4
gd81-09-27d1t08.flac:e8bcb0412ce08723fa1791dd31142a25
gd81-09-27d1t09.flac:05d3e1bba73835f18baa9e699178d22b
gd81-09-27d1t10.flac:4ad92fa30181c1e098ec615c4a08a818
gd81-09-27d1t11.flac:02dde98cdb482328acd429a464faea82
gd81-09-27d2t01.flac:403dcf063b4918a959ff28c113cf4944
gd81-09-27d2t02.flac:511bff0473892c109ef4bdac2145fb82
gd81-09-27d2t03.flac:5af6deafbf2fe7e59907f78e9d152a30
gd81-09-27d2t04.flac:c36350b5a067f844d68bf61833ea3ea0
gd81-09-27d2t05.flac:cc3beef45bfec9d57520cf779ca4de34
gd81-09-27d2t06.flac:ca9b9f7a3e9c763f2c4110597c81ea4a
gd81-09-27d2t07.flac:a68a912bca2ee8d8cc9af78e1c6947b5
gd81-09-27d2t08.flac:681e31b28361403e1862a8924c20f9ae
gd81-09-27d2t09.flac:e01428c474ddaf1f57044dafeef5e790
gd81-09-27d2t10.flac:e03c6736b85a9957f4e68ac9936e9250
gd81-09-27d2t11.flac:3c5bb2069ce7da52d50ef86eda793286
gd81-09-27d3t01.flac:902396c13cc40c6b34a503c3d02f5038
flac-md5
bd8b7f90ff333c5d07765ec86db7c1cd *gd81-09-27d1t01.flac
838cab32479b287e0a2d0c177d59242c *gd81-09-27d1t02.flac
1a45ec7f4f5227203fe6b19102776698 *gd81-09-27d1t03.flac
49b839ec623aa5eec5537e4668a9a34c *gd81-09-27d1t04.flac
7e5d1bec856e95dc2dbff1498a8c9e3b *gd81-09-27d1t05.flac
fe4fabd282ef296a77aa4c44fef0df01 *gd81-09-27d1t06.flac
92cefcadefda3887cff7d951eccd392c *gd81-09-27d1t07.flac
752564a01ccf9dd29aec0bf378c5a629 *gd81-09-27d1t08.flac
ff69d0689a4bb7114aad0e1f3dea68f0 *gd81-09-27d1t09.flac
611c8732fb51336a2cff306267482cc4 *gd81-09-27d1t10.flac
419bcacb517367c4ce2fadd5bab53242 *gd81-09-27d1t11.flac
baa5d8ddc29d9eeedd18f2ee3c74dfde *gd81-09-27d2t01.flac
bdd29ee87bafba02dd0206eaeb6a6ffd *gd81-09-27d2t02.flac
e7d994e68b8569ff7657534371d397f5 *gd81-09-27d2t03.flac
9e784a401a6dc73774be578b6d8cafca *gd81-09-27d2t04.flac
dc2dcd7f755d1dfd73c45f934b49d058 *gd81-09-27d2t05.flac
be51695ff112e689faa189b957f2a48d *gd81-09-27d2t06.flac
3bbd09d6ed335aaa798ac9ffd2609889 *gd81-09-27d2t07.flac
c41ffaf573d5a78d387e117f40662aee *gd81-09-27d2t08.flac
faf4395b8a06d03ae65cb2214ddeca31 *gd81-09-27d2t09.flac
8d41f5bdadcbd4e79eb5aacc519fad38 *gd81-09-27d2t10.flac
a939c32d13da679d27e0561d3e3e5e0c *gd81-09-27d2t11.flac
0443cf2d5d0b65ce78b70068f77d75f9 *gd81-09-27d3t01.flac

Comments
Add Comment
Other Sources (comments)
SBD>Cm>PCM>Dat>CD; via... (0) flac16; Set 2... (0) 2 Nakamichi 300's (taped to... (0) flac16; Set 1... (0)
Date User Comment