Browse Collections Artists Sources   Search Dates

Add Show    List Management    Help


Grateful Dead 11/13/87
Long Beach Arena, Long Beach, CA
Comments Add Comment    Source Collectors    Add to Collection    Add to Want List    History
Source # 122189 Other Sources
Entered by Matt Vernon
Checksums ffp , flac-md5
Disc Counts 0 / 0
Media Size Compressed: 914.73 MB (959160402 bytes)
Uncompressed: 1.4 GB (1502347848 bytes)
Date Circulated
Date Added
09/30/2012
09/30/2012
Source Summary flac16; Recording Info: Set 1: SBD -> Cassette Master -> Cassette (Maxell XLIIS); Set 2: SBD -> Cassette Master (TDK MA-R90); Transfer Info: Set 1: Cassette -> Samplitude Professional v10.1 -> FLAC; Set 2: Cassette Master (Nakamichi DR-1) -> Sound Devices 744T (24bit/96k) -> Samplitude Professional v10.1 -> FLAC/16; Remastering Info: FLAC -> Adobe Audition v3.0 -> Samplitude Professional v11.2.1 -> FLAC; All Transfers and Mastering By Charlie Miller 
  Archive
Source Information - Download Text | Download Zip
Grateful Dead - November 13, 1987
Long Beach Arena - Long Beach, CA

Recording Info:
Set 1: SBD -> Cassette Master -> Cassette (Maxell XLIIS)
Set 2: SBD -> Cassette Master (TDK MA-R90)

Transfer Info:
Set 1: Cassette -> Samplitude Professional v10.1 -> FLAC
Set 2: Cassette Master (Nakamichi DR-1) -> Sound Devices 744T (24bit/96k) ->
Samplitude Professional v10.1 -> FLAC/16

Remastering Info:
FLAC -> Adobe Audition v3.0 -> Samplitude Professional v11.2.1 -> FLAC
(2 Discs Audio / 1 DVD FLAC)

All Transfers and Mastering By Charlie Miller
[email protected]
September 29, 2012

Patch Info:
SBD -> Cassette Master -> Cassette (shnid=13568) supplies:
Space (0:55 - 0:59)

Notes:
-- Disc change is seamless
-- Fixed the swapped channels in Set 1
-- Thanks to Joe B. Jones for his help with the pitch correction

Set 1:
d1t01 - Hell In A Bucket ->
d1t02 - Sugaree
d1t03 - Minglewood Blues
d1t04 - Friend Of The Devil
d1t05 - Far From Me
d1t06 - Bird Song
d1t07 - Music Never Stopped

Set 2:
d1t08 - Bertha ->
d1t09 - Women Are Smarter
d1t10 - Ship OF Fools
d2t01 - Estimated Prophet ->
d2t02 - Drums ->
d2t03 - Space ->
d2t04 - The Wheel ->
d2t05 - Gimme Some Lovin' ->
d2t06 - Wharf Rat ->
d2t07 - Sugar Magnolia

Encore:
d2t08 - Knockin' On Heaven's Door


SHNTOOL OUTPUT:
    length     expanded size    cdr  WAVE problems  fmt   ratio  filename
     6:03.04       64042652 B   ---   --   ---xx   flac  0.6388  gd87-11-13d1t01.flac
    10:48.69      114469532 B   ---   --   ---xx   flac  0.6243  gd87-11-13d1t02.flac
     7:31.04       79565852 B   ---   --   ---xx   flac  0.6359  gd87-11-13d1t03.flac
     8:44.12       92461868 B   ---   --   ---xx   flac  0.6264  gd87-11-13d1t04.flac
     4:41.62       49714268 B   ---   --   ---xx   flac  0.6573  gd87-11-13d1t05.flac
    10:49.71      114650636 B   ---   --   ---xx   flac  0.6380  gd87-11-13d1t06.flac
     7:02.24       74497292 B   ---   --   ---xx   flac  0.6472  gd87-11-13d1t07.flac
     7:07.55       75452204 B   ---   --   ---xx   flac  0.6807  gd87-11-13d1t08.flac
     7:28.40       79121324 B   ---   --   ---xx   flac  0.6630  gd87-11-13d1t09.flac
     8:14.13       87172220 B   ---   --   ---xx   flac  0.6424  gd87-11-13d1t10.flac
    12:17.53      130131500 B   ---   --   ---xx   flac  0.6686  gd87-11-13d2t01.flac
     8:30.35       90046364 B   ---   --   ---xx   flac  0.5678  gd87-11-13d2t02.flac
     6:45.10       71465564 B   ---   --   ---xx   flac  0.5276  gd87-11-13d2t03.flac
     4:00.52       42458348 B   ---   --   ---xx   flac  0.6523  gd87-11-13d2t04.flac
     5:17.37       56005868 B   ---   --   ---xx   flac  0.6474  gd87-11-13d2t05.flac
     8:42.10       92104364 B   ---   --   ---xx   flac  0.6347  gd87-11-13d2t06.flac
    10:10.35      107686364 B   ---   --   ---xx   flac  0.6902  gd87-11-13d2t07.flac
     7:40.67       81301628 B   ---   --   ---xx   flac  0.6376  gd87-11-13d2t08.flac
   141:56.53     1502347848 B                            0.6384  (18 files)


Show Checksums
ffp
gd87-11-13d1t01.flac:d8e9eb3b0e72a74caa3bc4af9e2807a7
gd87-11-13d1t02.flac:98d9106763dd8472dc2b57da4048df41
gd87-11-13d1t03.flac:0067a0c67b6d5c70176d0ad424d5cf99
gd87-11-13d1t04.flac:c2f838920d2ed628866af1bb7592b4b8
gd87-11-13d1t05.flac:52d3f7e36abb42b8fc07cfb1f5e1220e
gd87-11-13d1t06.flac:9ecdd3ae7ba74aa38582c2b6edea1410
gd87-11-13d1t07.flac:f4eaa9435b3055ab8a5132095f9cfd74
gd87-11-13d1t08.flac:264581a3cd2e0cdb7f808a9194537540
gd87-11-13d1t09.flac:710ecd362d0834f3cd42a75c9aa37d91
gd87-11-13d1t10.flac:7094754928fd75b4a407face32ea54ec
gd87-11-13d2t01.flac:dab2684200496981e60dee43ff7c828b
gd87-11-13d2t02.flac:d67b2b593001dce019ae3f690353aad0
gd87-11-13d2t03.flac:b9cdf97c9850caad3d371429a110d804
gd87-11-13d2t04.flac:2d708dce5c66ce682e26220b596eae05
gd87-11-13d2t05.flac:2623919b4248b355a97e16b835235f45
gd87-11-13d2t06.flac:b82020743f45b8fc6176c5922612851e
gd87-11-13d2t07.flac:66484eae45a21f6fe6bbaf3d0601d425
gd87-11-13d2t08.flac:7f1b5e11e1669c4c84f7fb81272d6f6c
flac-md5
058b7a3dd1e782543fef90e165368382 *gd87-11-13d1t01.flac
7bf9a6937aaf95c18db82033ea1d8908 *gd87-11-13d1t02.flac
01dc0a3a05273529eddeca7aec098d41 *gd87-11-13d1t03.flac
ac637f9151bb69dc3398f5a4a9244d5d *gd87-11-13d1t04.flac
fc71afd5e444f5d1a8b2e4742c67bf92 *gd87-11-13d1t05.flac
b90c4bb2f2be99b8b1591fe717462dcd *gd87-11-13d1t06.flac
fdd06a60ce0e9c293d5b854fe191bdd2 *gd87-11-13d1t07.flac
231642434dda8e8e2be424e5ab74f3fa *gd87-11-13d1t08.flac
a04cd79eaa1667743b88d7325233dbf2 *gd87-11-13d1t09.flac
fbeb799bb65e1bfb1c807c825704b75a *gd87-11-13d1t10.flac
7fd3d71ab025b7a75537ed9ab4f4bf01 *gd87-11-13d2t01.flac
3dece6c94ca41cdb9a652b806e8b5f49 *gd87-11-13d2t02.flac
2fd88047b1eb50f14be0413a21859eb2 *gd87-11-13d2t03.flac
27016f4b0f66c74ea5f30635dd8baa1b *gd87-11-13d2t04.flac
583c5e36e93f4b5ca2441c554e66fbeb *gd87-11-13d2t05.flac
edcf2dc99eb620cd562a11cd89b5ce72 *gd87-11-13d2t06.flac
dba3cc165c2b108cb6921712abd97ba9 *gd87-11-13d2t07.flac
5c68fe03c2918692f23654b7ad5e0ddd *gd87-11-13d2t08.flac

Comments
Add Comment
Other Sources (comments)
SBD -> Cm -> Cass -> Sony... (0) flac16; Recording... (0)
Date User Comment