Browse Collections Artists Sources   Search Dates

Add Show    List Management    Help


Grateful Dead 11/14/87
Long Beach Arena, Long Beach, CA
Comments Add Comment    Source Collectors    Add to Collection    Add to Want List    History
Source # 122199 Other Sources
Entered by Matt Vernon
Checksums ffp , flac-md5
Disc Counts 0 / 0
Media Size Compressed: 869.13 MB (911352293 bytes)
Uncompressed: 1.33 GB (1428709036 bytes)
Date Circulated
Date Added
10/01/2012
10/01/2012
Source Summary flac16; Recording Info: SBD -> Cassette Master -> Cassette; Transfer Info: Cassette (Tascam 122mkII) -> Apogee MiniMe (24bit/48k) -> Samplitude Professional v9.02 -> FLAC/16; Remastering Info: FLAC -> Adobe Audition v3.0 -> Samplitude Professional v11.2.1 -> FLAC; All Transfers and Mastering By Charlie Miller 
  Archive
Source Information - Download Text | Download Zip
Grateful Dead - November 14, 1987
Long Beach Arena - Long Beach, CA

Recording Info:
SBD -> Cassette Master -> Cassette

Transfer Info:
Cassette (Tascam 122mkII) -> Apogee MiniMe (24bit/48k) ->
Samplitude Professional v9.02 -> FLAC/16

Remastering Info:
FLAC -> Adobe Audition v3.0 -> Samplitude Professional v11.2.1 -> FLAC
(2 Discs Audio / 1 DVD FLAC)

All Transfers and Mastering By Charlie Miller
[email protected]
September 30, 2012

Notes:
-- Disc change is seamless
-- Tape flip at start of Deal
-- Thanks to Paul Scotton, Joani Walker and Steve Marcus for the tapes
-- Thanks to Joe B. Jones for his help with the pitch correction

Set 1:
d1t01 - Shakedown Street
d1t02 - Little Red Rooster
d1t03 - Althea
d1t04 - When I Paint My Masterpiece
d1t05 - Hey Pocky Way
d1t06 - Deal

Set 2:
d1t07 - Maggie's Farm ->
d1t08 - Cumberland Blues
d2t01 - Playing In The Band ->
d2t02 - Terrapin Station ->
d2t03 - Drums ->
d2t04 - Space ->
d2t05 - I Need A Miracle ->
d2t06 - Stella Blue ->
d2t07 - Throwing Stones ->
d2t08 - Turn On Your Lovelight

Encore:
d2t09 - The Mighty Quinn (Quinn The Eskimo)


SHNTOOL OUTPUT:
    length     expanded size    cdr  WAVE problems  fmt   ratio  filename
    12:51.23      136058540 B   ---   --   ---xx   flac  0.6373  gd87-11-14d1t01.flac
    10:34.02      111842348 B   ---   --   ---xx   flac  0.6275  gd87-11-14d1t02.flac
     8:45.40       92704124 B   ---   --   ---xx   flac  0.6347  gd87-11-14d1t03.flac
     5:35.12       59122268 B   ---   --   ---xx   flac  0.6329  gd87-11-14d1t04.flac
     5:50.40       61834124 B   ---   --   ---xx   flac  0.6482  gd87-11-14d1t05.flac
     8:40.21       91777436 B   ---   --   ---xx   flac  0.6303  gd87-11-14d1t06.flac
     6:44.66       71420876 B   ---   --   ---xx   flac  0.6626  gd87-11-14d1t07.flac
     6:11.10       65467964 B   ---   --   ---xx   flac  0.6535  gd87-11-14d1t08.flac
     8:10.27       86499548 B   ---   --   ---xx   flac  0.6610  gd87-11-14d2t01.flac
    12:56.04      136895852 B   ---   --   ---xx   flac  0.6420  gd87-11-14d2t02.flac
     7:01.02       74269148 B   ---   --   ---xx   flac  0.6189  gd87-11-14d2t03.flac
     6:36.20       69901484 B   ---   --   ---xx   flac  0.6083  gd87-11-14d2t04.flac
     4:24.37       46656668 B   ---   --   ---xx   flac  0.6457  gd87-11-14d2t05.flac
     8:49.51       93435596 B   ---   --   ---xx   flac  0.6259  gd87-11-14d2t06.flac
     9:31.40      100818524 B   ---   --   ---xx   flac  0.6380  gd87-11-14d2t07.flac
     7:40.49       81259292 B   ---   --   ---xx   flac  0.6454  gd87-11-14d2t08.flac
     4:36.25       48745244 B   ---   --   ---xx   flac  0.6410  gd87-11-14d2t09.flac
   134:59.19     1428709036 B                            0.6379  (17 files)


Show Checksums
ffp
gd87-11-14d1t01.flac:66a355c02ac7885d3f730e7e154f0c3f
gd87-11-14d1t02.flac:720c1201b9f715e663a5b9b6c24582d8
gd87-11-14d1t03.flac:d10a793fdcd6eec922507ff3adcd25b6
gd87-11-14d1t04.flac:82fd54b0d21319d967d7e344287e17a5
gd87-11-14d1t05.flac:43bf50c83074cba67adc5899d4a3cacf
gd87-11-14d1t06.flac:19bdcdf28a6f825f826d828b2852babf
gd87-11-14d1t07.flac:e57b24f22c6403ef6114e51761704ca4
gd87-11-14d1t08.flac:2ff99bca9a339de512995e6a18bf1ff5
gd87-11-14d2t01.flac:cf36d5486c9a085ce76bb18c5032aa90
gd87-11-14d2t02.flac:21c34b195540a3810779f6bc44ffd4dc
gd87-11-14d2t03.flac:137e77bf2a399512768cb325a4046053
gd87-11-14d2t04.flac:a505528765bf7bed9c04fde7dbb0c53e
gd87-11-14d2t05.flac:eaf9ca865fd4216c13a7bc6293b9865f
gd87-11-14d2t06.flac:8e64a4e8e90f921a4c8bc77270f0d6d5
gd87-11-14d2t07.flac:29d60a5bbc73671f247cd378a3b45a79
gd87-11-14d2t08.flac:069440d979ba67da847a25437f0210a3
gd87-11-14d2t09.flac:631b1585c133535ea3d929407380e94d
flac-md5
87c1d5c86b7f3122a6c930f99bfa1d6f *gd87-11-14d1t01.flac
cbb0784b10b1ce6954a940d9fd13ab34 *gd87-11-14d1t02.flac
7b5e9a8c7822f2f07d84a2d879291a05 *gd87-11-14d1t03.flac
87659ed15507a19ea02c16210b4f49c9 *gd87-11-14d1t04.flac
47bf16799602bd6c653b9d66916e473d *gd87-11-14d1t05.flac
627665fe59a41c9fa520c8816c57dbc8 *gd87-11-14d1t06.flac
e1d5265a89e76a09ef0bab973c7db359 *gd87-11-14d1t07.flac
74789a870a95805b7d7cab78f26f5652 *gd87-11-14d1t08.flac
fba65d2f43eabb140be4239d0f83e138 *gd87-11-14d2t01.flac
46f077b69472213c9a1c7012f1673156 *gd87-11-14d2t02.flac
5d249f9f52cff3b0378646234cc6ffa0 *gd87-11-14d2t03.flac
bb401d24f52da90c73880c4fa75ef778 *gd87-11-14d2t04.flac
6bdf00d17d5d53cb453f2bfa1995bbf7 *gd87-11-14d2t05.flac
43cf8b0825591c8d245ec3340ba2f04f *gd87-11-14d2t06.flac
ebf22d733c9e85a100755c1eec5715cc *gd87-11-14d2t07.flac
5fbd948986e021c91ccdebc48f325461 *gd87-11-14d2t08.flac
0d580ea22acf5c239a978ed9c6581e0e *gd87-11-14d2t09.flac

Comments
Add Comment
Other Sources (comments)
Partial, 4 songs; SBD -> Cm... (0) Source 1 = SBD -> Cm ->... (1) AUD>MC>DAT>CD; via Paul B;... (2) flac16; Recording... (0)
Date User Comment