Browse Collections Artists Sources   Search Dates

Add Show    List Management    Help


Grateful Dead 11/07/87
Henry J Kaiser Convention Center, Oakland, CA
Comments Add Comment    Source Collectors    Add to Collection    Add to Want List    History
Source # 122203 Other Sources
Entered by Matt Vernon
Checksums ffp , flac-md5
Disc Counts 0 / 0
Media Size Compressed: 933.34 MB (978680602 bytes)
Uncompressed: 1.47 GB (1573166656 bytes)
Date Circulated
Date Added
10/01/2012
10/01/2012
Source Summary flac16; Recording Info: SBD -> Cassette Master (TDK MA-XG90); Transfer Info: Cassette Master (Tascam 122mkII) -> Apogee MiniMe (24bit/48k) -> Samplitude Professional v9.02 -> FLAC/16; Remastering Info: FLAC -> Adobe Audition v3.0 -> Samplitude Professional v11.2.1 -> FLAC; All Transfers and Mastering By Charlie Miller 
  Archive
Source Information - Download Text | Download Zip
Grateful Dead - November 7, 1987
Henry J. Kaiser Convention Center - Oakland, CA

Recording Info:
SBD -> Cassette Master (TDK MA-XG90)

Transfer Info:
Cassette Master (Tascam 122mkII) -> Apogee MiniMe (24bit/48k) ->
Samplitude Professional v9.02 -> FLAC/16

Remastering Info:
FLAC -> Adobe Audition v3.0 -> Samplitude Professional v11.2.1 -> FLAC
(2 Discs Audio / 1 DVD FLAC)

All Transfers and Mastering By Charlie Miller
[email protected]
October 1, 2012

Patch Info:
SBD -> PCM -> Sound Forge -> CD (shnid=9242) supplies:
Space (0:01 - 0:24)

Notes:
-- Encore on end of 1st Set to fit show on 2 discs
-- Encore can be re-joined with 2nd Set seamlessly
-- Sound improves during Hey Pocky Way
-- Thanks to Paul Scotton and Joani Walker for the tapes
-- Thanks to Joe B. Jones for his help with the pitch correction

Set 1:
d1t01 - Hey Pocky Way
d1t02 - Jack Straw
d1t03 - Row Jimmy
d1t04 - When I Paint My Masterpiece
d1t05 - Dupree's Diamond Blues
d1t06 - Box Of Rain
d1t07 - Cassidy ->
d1t08 - Might As Well

Set 2:
d2t01 - Uncle John's Band ->
d2t02 - Playing In The Band ->
d2t03 - Terrapin Station ->
d2t04 - Drums ->
d2t05 - Space ->
d2t06 - I Need A Miracle ->
d2t07 - Black Peter ->
d2t08 - Throwing Stones ->
d2t09 - Not Fade Away

Encore:
d1t09 - Not Fade Away ->
d1t10 - Knockin' On Heaven's Door
d1t11 - One More Saturday Night


SHNTOOL OUTPUT:
    length     expanded size    cdr  WAVE problems  fmt   ratio  filename
     7:02.17       74480828 B   ---   --   ---xx   flac  0.6175  gd87-11-07d1t01.flac
     6:18.00       66679244 B   ---   --   ---xx   flac  0.6466  gd87-11-07d1t02.flac
    10:26.37      110513468 B   ---   --   ---xx   flac  0.6400  gd87-11-07d1t03.flac
     5:39.26       59860796 B   ---   --   ---xx   flac  0.6481  gd87-11-07d1t04.flac
     7:07.28       75388700 B   ---   --   ---xx   flac  0.6413  gd87-11-07d1t05.flac
     6:15.59       66288812 B   ---   --   ---xx   flac  0.6351  gd87-11-07d1t06.flac
     6:29.15       68654924 B   ---   --   ---xx   flac  0.6461  gd87-11-07d1t07.flac
     4:53.52       51807548 B   ---   --   ---xx   flac  0.6496  gd87-11-07d1t08.flac
     1:00.58       10720460 B   ---   --   ---xx   flac  0.5990  gd87-11-07d1t09.flac
    11:01.70      116765084 B   ---   --   ---xx   flac  0.6228  gd87-11-07d1t10.flac
     5:10.48       54796940 B   ---   --   ---xx   flac  0.6551  gd87-11-07d1t11.flac
     7:48.38       82644620 B   ---   --   ---xx   flac  0.6255  gd87-11-07d2t01.flac
     9:17.01       98257196 B   ---   --   ---xx   flac  0.6331  gd87-11-07d2t02.flac
    13:21.46      141404636 B   ---   --   ---xx   flac  0.6154  gd87-11-07d2t03.flac
     8:59.72       95248988 B   ---   --   ---xx   flac  0.5546  gd87-11-07d2t04.flac
     6:32.67       69306428 B   ---   --   ---xx   flac  0.5234  gd87-11-07d2t05.flac
     3:33.37       37660268 B   ---   --   ---xx   flac  0.6466  gd87-11-07d2t06.flac
     8:30.34       90044012 B   ---   --   ---xx   flac  0.6114  gd87-11-07d2t07.flac
     9:09.00       96843644 B   ---   --   ---xx   flac  0.6417  gd87-11-07d2t08.flac
     9:59.58      105800060 B   ---   --   ---xx   flac  0.6141  gd87-11-07d2t09.flac
   148:38.13     1573166656 B                            0.6221  (20 files)


Show Checksums
ffp
gd87-11-07d1t01.flac:d921bce4909d9e6f4b230d22ea9018bc
gd87-11-07d1t02.flac:480893abcbc302a0ea6fc1441d3d2ebe
gd87-11-07d1t03.flac:80388cd9ac6d646c9c0f1368ef92f02e
gd87-11-07d1t04.flac:5f34d15f429b14ab8af3d28daaa2649a
gd87-11-07d1t05.flac:07eb292bf03653d78bd7c804f8a934dc
gd87-11-07d1t06.flac:b66616ba9ec113e2669f32cbae42c6b0
gd87-11-07d1t07.flac:f013ce30cf967b14218749daef44fb50
gd87-11-07d1t08.flac:54bc6f5cf46ab9283bdac69a9ea757ea
gd87-11-07d1t09.flac:443a6abb6739b32d24e2aed784815e95
gd87-11-07d1t10.flac:760dfb2d7dd51aad0b3a2e911141f414
gd87-11-07d1t11.flac:d8c920c72256d7dc4ed2602d41454f35
gd87-11-07d2t01.flac:1b159b91c932c63eae08117ae58dbe86
gd87-11-07d2t02.flac:be361ecb7bdc044d8efac58b344e4510
gd87-11-07d2t03.flac:afd742e049bf4b47c270727969badc87
gd87-11-07d2t04.flac:4af18663b0115c5f3c68515d46a479aa
gd87-11-07d2t05.flac:116116b5d55daad44dbedb3d3f3eb0cc
gd87-11-07d2t06.flac:18949817b7976832d817d74abda7b8c7
gd87-11-07d2t07.flac:6304218bdd04f99f0122b2b5269e5036
gd87-11-07d2t08.flac:86ff2a49fb1c1b9357eb2befe47246ba
gd87-11-07d2t09.flac:b6e0080bdf953c9fa9b32da43af7fd11
flac-md5
c377f2ae2fb9f49b64edb1160cb09311 *gd87-11-07d1t01.flac
ce13d531b0643a6b99655b03ce3e003a *gd87-11-07d1t02.flac
3ceab769449b0df2ad031be0a22d610a *gd87-11-07d1t03.flac
129c213474aaef89456ac7c5b398cf0b *gd87-11-07d1t04.flac
5206b26500b202dc038db974cb0fb43d *gd87-11-07d1t05.flac
cd811e0f1e62e490846b7fbfe0e1a65a *gd87-11-07d1t06.flac
d85d4371cc5766e3a0e569821488927e *gd87-11-07d1t07.flac
82af81578eb0b72ae875632cbb1f765c *gd87-11-07d1t08.flac
d25aad6136711eb7d0aa21324aa3feec *gd87-11-07d1t09.flac
0e33223616e9574094758dafae2b1fd0 *gd87-11-07d1t10.flac
0bb210293a84d2d44d30d5e61880a2fc *gd87-11-07d1t11.flac
965120fa9ec9df296f35234e52bdc2b9 *gd87-11-07d2t01.flac
c74987ff218367a58c184133f70aad1a *gd87-11-07d2t02.flac
bca5df7b17f2796c176af90de9980f5b *gd87-11-07d2t03.flac
36cb54e32f6a629511b8887e4d9acf3f *gd87-11-07d2t04.flac
bd35d59af7257032a3dbf6a54fc93f94 *gd87-11-07d2t05.flac
97fc4bcdb543ca88e655701fe40000ac *gd87-11-07d2t06.flac
ef8f42b5cadde2645286334550d01573 *gd87-11-07d2t07.flac
62a307e7dc4a62834afb96023c1c9d80 *gd87-11-07d2t08.flac
5c76651ea3a46c79e18c95e692a68353 *gd87-11-07d2t09.flac

Comments
Add Comment
Other Sources (comments)
SBD > PCM > CDR; Transfer:... (0) flac16 Remaster of... (0) flac16; Recording... (0) flac24; First... (0) flac16; First... (0) flac16; Sbd > ? >... (0)
Date User Comment