Browse Collections Artists Sources   Search Dates

Add Show    List Management    Help


Gov't Mule 10/17/12
The Georgia Theatre, Athens, GA
Comments Add Comment    Source Collectors    Add to Collection    Add to Want List    History
Source # 122414 Other Sources
Entered by Albix
Checksums flac.ffp
Disc Counts 0 / 0
Media Size Compressed: 897.36 MB (940945908 bytes)
Date Circulated
Date Added
10/19/2012
10/19/2012
Source Summary flac16; AKG c414b-ULS (cardioid din dfc 1st balcony rail)>V3 (24/96)>sd722
Transfer: firewire>wavelab 6.10 [Crystal Resampler (downsample) iZotope Ozone 4 (dither)]>CDWav (splits)>FLACFrontend>foobar2000 (tagging)
taped and transferred by John Barren
A Team Dirty South Recording 
Source Information - Download Text | Download Zip
Gov't Mule
2012-10-17
The Georgia Theatre, Athens, Ga.

Source: AKG c414b-ULS (cardioid din dfc 1st balcony rail)>V3 (24/96)>sd722
Transfer: firewire>wavelab 6.10 [Crystal Resampler (downsample) iZotope Ozone 4 (dither)]>CDWav (splits)>FLACFrontend>foobar2000 (tagging)
taped and transferred by John Barren
A Team Dirty South Recording

Rooftop Set with Warren & Matt
01. When The Circus Comes To Town
02. Into The Mystic
03. Soulshine

Set 1
01. Dixie Peaches Jam>
02. Temporary Saint>
03. Gameface> Mountian Jam> Gameface>
04. Trane>
05. Eternity's Breath>
06. Trane> St. Stephen Jam>
07. Presence of the Lord
08. Don't Step on the Grass Sam
09. Birth of the Mule
10. Banks on the Deep End>
11. Time to Confess

Set 2
01. Goin' out West> Bang A Gong> Goin' out West>
02. Gonna Send You Back to Georgia
03. Beautifully Broken>
04. Forevermore>
05. I'm a Ram> Love Me Do> I'm a Ram
06. Feel Like Breaking up Somebody's Home*
07. Mule> Whole Lotta Love> Mule
08. crowd
Encore:
09. Spoonful#
10. house music

* w/ AJ Ghent and Ike Stubblefield
# w/ Col. Bruce Hampton, AJ Ghent, and Ike Stubblefield


Shntool
length expanded size cdr WAVE problems fmt ratio filename
5:47.09 61232012 B --- -- ---xx flac 0.4318 gm2012-10-17rooftopt01.flac
4:11.51 44396396 B --- -- ---xx flac 0.4472 gm2012-10-17rooftopt02.flac
4:36.16 48724076 B --- -- ---xx flac 0.4737 gm2012-10-17rooftopt03.flac
2:38.60 28012364 B --- -- ---xx flac 0.4480 gm2012-10-17s1t01.flac
5:33.40 58835324 B --- -- ---xx flac 0.5211 gm2012-10-17s1t02.flac
12:02.20 127407884 B --- -- ---xx flac 0.5243 gm2012-10-17s1t03.flac
7:38.22 80842988 B --- -- ---xx flac 0.5283 gm2012-10-17s1t04.flac
3:12.74 34042892 B --- -- ---xx flac 0.5360 gm2012-10-17s1t05.flac
7:04.35 74875964 B --- -- ---xx flac 0.5101 gm2012-10-17s1t06.flac
5:09.19 54552332 B --- -- ---xx flac 0.4823 gm2012-10-17s1t07.flac
10:13.40 108227324 B --- -- ---xx flac 0.5145 gm2012-10-17s1t08.flac
9:37.33 101860460 B --- -- ---xx flac 0.4829 gm2012-10-17s1t09.flac
6:03.64 64183772 B --- -- ---xx flac 0.5182 gm2012-10-17s1t10.flac
11:53.31 125846156 B --- -- ---xx flac 0.5240 gm2012-10-17s1t11.flac
8:16.55 87623804 B --- -- ---xx flac 0.5296 gm2012-10-17s2t01.flac
9:52.00 104428844 B --- -- ---xx flac 0.4900 gm2012-10-17s2t02.flac
7:36.45 80544284 B --- -- ---xx flac 0.5069 gm2012-10-17s2t03.flac
4:09.57 44057708 B --- -- ---xx flac 0.4583 gm2012-10-17s2t04.flac
12:52.46 136289036 B --- -- ---xx flac 0.5221 gm2012-10-17s2t05.flac
13:20.20 141167084 B --- -- ---xx flac 0.5131 gm2012-10-17s2t06.flac
12:13.72 129470588 B --- -- ---xx flac 0.5202 gm2012-10-17s2t07.flac
2:17.20 24213884 B --- -- ---xx flac 0.4246 gm2012-10-17s2t08.flac
8:25.32 89157308 B --- -- ---xx flac 0.4798 gm2012-10-17s2t09.flac
2:11.43 23209580 B --- -- ---xx flac 0.4061 gm2012-10-17s2t10.flac
176:59.04 1873202064 B 0.5023 (24 files)
Show Checksums
flac.ffp
gm2012-10-17rooftopt01.flac:efda6f73946b39f471eb176a1978c237
gm2012-10-17rooftopt02.flac:b2e507981dc49d3060adaab12b3d94b5
gm2012-10-17rooftopt03.flac:d5c2321bcc77cf6dc56054045f79aea1
gm2012-10-17s1t01.flac:7e70bfb42d99705c82bb80b406cab93c
gm2012-10-17s1t02.flac:b8a2fe6fbabae76ec8a49ef9258b65b6
gm2012-10-17s1t03.flac:eca0073335cbe8fbf7076ea800baf9b9
gm2012-10-17s1t04.flac:e720342a1a08a41b722e43f2b2944687
gm2012-10-17s1t05.flac:a38adc4f1ba9cb35e7e71c8aa175cb2b
gm2012-10-17s1t06.flac:bae6ecf5cd471e68a427496ec0f3894f
gm2012-10-17s1t07.flac:19e1822b054086501624787c7516d97b
gm2012-10-17s1t08.flac:588492b35b1e8a301fa08016e7f25de7
gm2012-10-17s1t09.flac:4490ae7af2d9740f50a5c8204d9081e1
gm2012-10-17s1t10.flac:3d792ab588a20f30b1d58eb62ae73791
gm2012-10-17s1t11.flac:9d8885a226dc7da695a7c0742e861e0d
gm2012-10-17s2t01.flac:1b17801cb50631e4d5b76852d60bd5aa
gm2012-10-17s2t02.flac:4603ec033e6d3cc4539b426a8ddd57b8
gm2012-10-17s2t03.flac:08f81ddf11b33b8bd524238f24cfeee4
gm2012-10-17s2t04.flac:2d6a9f86efa334d7ad0b4f8238295b4c
gm2012-10-17s2t05.flac:2e95d593eeb3551f67e7f7f27e919c6d
gm2012-10-17s2t06.flac:676ae4b035101ca93f72a7bdab0a4ca3
gm2012-10-17s2t07.flac:2d85971f6c7901dd45d510f6d0ad1d03
gm2012-10-17s2t08.flac:5c2d9123e9c48afa7aa35b783bb5e68f
gm2012-10-17s2t09.flac:c82edad2c9ff47f31a33bf84a8ce6928
gm2012-10-17s2t10.flac:c02cb60009fcf3238d631045e8149a47

Comments
Add Comment
Other Sources (comments)
flac16; Neumann... (0) flac16; Neumann... (0)
Date User Comment