Browse Collections Artists Sources   Search Dates

Add Show    List Management    Help


Gov't Mule 10/18/12
Tabernacle, Atlanta, GA
Comments Add Comment    Source Collectors    Add to Collection    Add to Want List    History
Source # 122456 Other Sources
Entered by Albix
Checksums flac.ffp
Disc Counts 0 / 0
Media Size Compressed: 876.55 MB (919131113 bytes)
Date Circulated
Date Added
10/20/2012
10/21/2012
Source Summary flac16; AKG c414b-ULS (cardioid din dfc 1st balcony rail)>V3 (24/96)>sd722
Transfer: firewire>wavelab 6.10 [Crystal Resampler (downsample) iZotope Ozone 4 (dither)]>CDWav (splits)>FLACFrontend>foobar2000 (tagging)
taped and transferred by John Barren
A Team Dirty South Recording 
Source Information - Download Text | Download Zip
Gov't Mule
2012-10-18
The Tabernacle, Atlanta, Ga.

Source: AKG c414b-ULS (cardioid din dfc fob)>V3 (24/96)>sd722
Transfer: firewire>wavelab 6.10 [Crystal Resampler (downsample) iZotope Ozone 4 (dither)]>CDWav (splits)>FLACFrontend>foobar2000 (tagging)
taped and transferred by John Barren
A Team Dirty South Recording

Set 1
01. Bad Little Doggie>
02. Steppin' Lightly
03. Inside Outside Woman Blues
04. Lola Leave Your Light On*
05. Rocking Horse>
06. No Need to Suffer
07. Painted Silver Light>
08. Oteil setup
09. Thorazine Shuffle~
10. house music

Set 2
01. No Reward
02. Lively up Yourself
03. Hush Intro> Slackjaw Jezbel>Hush> Slackjaw Jezbel
04. Captured>
05. Larger Than Life
06. Child of the Earth
07. Ain't No Sunshine When She's Gone> Blind Man In The Dark> When the Music's Over> Blind Man In The Dark
08. crowd/banter/tuning

Encore:
09. Need Your Love So [email protected]
10. The [email protected]
11. intros
12. Turn on Your Lovelight#
13. crowd/tuning
Encore 2:
14. That's What Love Will Make You Do^
15. house music

* w/ Blackdog tease
~ w/ Oteil Burbridge
@ w/ Tinsley Ellis
# w/ Tinsley Ellis, Col. Bruce Hampton, AJ Ghent, Jess Graham, Chuck Bithorn, and Oteil Burbridge; without Jorgen Carlsson
^ w/ Tinsley Ellis, AJ Ghent, Jess Graham, Chuck Bithorn, Oteil Burbridge & Coy Bowles; without Jorgen Carlsson

Shntool
    length     expanded size    cdr  WAVE problems  fmt   ratio  filename
     5:14.01       55391996 B   ---   --   ---xx   flac  0.4829  gm2012-10-18s1t01.flac
     7:22.34       78048812 B   ---   --   ---xx   flac  0.5102  gm2012-10-18s1t02.flac
     8:36.22       91074188 B   ---   --   ---xx   flac  0.5115  gm2012-10-18s1t03.flac
     6:54.55       73159004 B   ---   --   ---xx   flac  0.5005  gm2012-10-18s1t04.flac
     9:13.65       97702124 B   ---   --   ---xx   flac  0.4976  gm2012-10-18s1t05.flac
     9:02.71       95775836 B   ---   --   ---xx   flac  0.4790  gm2012-10-18s1t06.flac
     6:54.04       73039052 B   ---   --   ---xx   flac  0.4841  gm2012-10-18s1t07.flac
     3:05.28       32699900 B   ---   --   ---xx   flac  0.4167  gm2012-10-18s1t08.flac
    16:09.13      170962220 B   ---   --   ---xx   flac  0.4829  gm2012-10-18s1t09.flac
     1:02.60       11077964 B   ---   --   ---xx   flac  0.4228  gm2012-10-18s1t10.flac
     5:02.58       53409260 B   ---   --   ---xx   flac  0.4876  gm2012-10-18s2t01.flac
    10:44.45      113707484 B   ---   --   ---xx   flac  0.4565  gm2012-10-18s2t02.flac
    13:14.58      140198060 B   ---   --   ---xx   flac  0.4957  gm2012-10-18s2t03.flac
     9:45.65      103346924 B   ---   --   ---xx   flac  0.4590  gm2012-10-18s2t04.flac
     6:41.47       70846988 B   ---   --   ---xx   flac  0.4977  gm2012-10-18s2t05.flac
     7:06.29       75214652 B   ---   --   ---xx   flac  0.4675  gm2012-10-18s2t06.flac
    14:41.06      155422556 B   ---   --   ---xx   flac  0.4390  gm2012-10-18s2t07.flac
     3:56.65       41783324 B   ---   --   ---xx   flac  0.3935  gm2012-10-18s2t08.flac
    10:03.07      106385708 B   ---   --   ---xx   flac  0.3976  gm2012-10-18s2t09.flac
     5:59.61       63471116 B   ---   --   ---xx   flac  0.4863  gm2012-10-18s2t10.flac
     1:45.39       18613772 B   ---   --   ---xx   flac  0.3846  gm2012-10-18s2t11.flac
     8:01.30       84919004 B   ---   --   ---xx   flac  0.4791  gm2012-10-18s2t12.flac
     1:59.28       21057500 B   ---   --   ---xx   flac  0.4122  gm2012-10-18s2t13.flac
     9:03.42       95884028 B   ---   --   ---xx   flac  0.4974  gm2012-10-18s2t14.flac
     2:55.18       30912380 B   ---   --   ---xx   flac  0.3590  gm2012-10-18s2t15.flac
   184:37.51     1954103852 B                            0.4703  (25 files)


Show Checksums
flac.ffp
gm2012-10-18s1t01.flac:c3ba039014584e5d4d273cf0f819eb6a
gm2012-10-18s1t02.flac:6d94c5d9af37349ebd4728d19046a951
gm2012-10-18s1t03.flac:6796a4ef678e31b607440c8d26bc6cb6
gm2012-10-18s1t04.flac:1d69c3dda3c2a3b144f12efb6451e130
gm2012-10-18s1t05.flac:f2a4d63d061eb6ecf9d76013f47de134
gm2012-10-18s1t06.flac:08a5099460f2fae590721ac1700e5181
gm2012-10-18s1t07.flac:49e14121614acdf578957430be295364
gm2012-10-18s1t08.flac:67f9b57654b69f3ad7d8c04db6b10652
gm2012-10-18s1t09.flac:fbdcbab0fefec8655c1fca907758aad6
gm2012-10-18s1t10.flac:599c07e25d69fdfaf32f0991433f9117
gm2012-10-18s2t01.flac:548bc68c2e99fe2f9ec743728447f026
gm2012-10-18s2t02.flac:ed9faadbc2e966575b70c571a157af26
gm2012-10-18s2t03.flac:c257bcd4bc977f04f2a9de60ff9643d7
gm2012-10-18s2t04.flac:2013f0dc919fb2442feb54e34fd64af8
gm2012-10-18s2t05.flac:dac631d6e3f6a66e1e4b40bf164b7fc4
gm2012-10-18s2t06.flac:2b985a76bfac0a11d15a6a14365c562a
gm2012-10-18s2t07.flac:c9cdd88263cfa865a1f77c21baab9ba5
gm2012-10-18s2t08.flac:2c5e738824e57ba20b68059b95e25a40
gm2012-10-18s2t09.flac:de1a71365e644357e89d531d5abf9e60
gm2012-10-18s2t10.flac:fe31655c9534177dfd8ccd171b1c09e4
gm2012-10-18s2t11.flac:da4491d547feaaf9b46eab5c3be04ca0
gm2012-10-18s2t12.flac:02bcc79dfa990cac084df0c7df7202f0
gm2012-10-18s2t13.flac:51c4e1da5c5d825e2eeaaabafec2e885
gm2012-10-18s2t14.flac:03c183ea9582ab7d69a3ac623567090e
gm2012-10-18s2t15.flac:e8118622bdf6e14f740924d796518133

Comments
Add Comment
Other Sources (comments)
flac16; Neumann... (0) flac16; FOB Neumann... (0) flac16; 4 ch matrix;... (0)
Date User Comment