Browse Collections Artists Sources   Search Dates

Add Show    List Management    Help


Gov't Mule 10/19/12
Cox Capitol Theatre, Macon, GA
Comments Add Comment    Source Collectors    Add to Collection    Add to Want List    History
Source # 122457 Other Sources
Entered by Albix
Checksums flac.ffp
Disc Counts 2 / 2
Media Size Compressed: 779.04 MB (816886831 bytes)
Date Circulated
Date Added
10/21/2012
10/21/2012
Source Summary flac16; AKG c414b-ULS (cardioid din loc rob)>V3 (24/96)>sd722
Transfer: firewire>wavelab 6.10 [Crystal Resampler (downsample) iZotope Ozone 4 (dither)]>CDWav (splits)>FLACFrontend>foobar2000 (tagging)
taped and transferred by John Barren
A Team Dirty South Recording 
Source Information - Download Text | Download Zip
Gov't Mule
2012-10-19
Cox Capitol Theatre, Macon, Ga.

Source: AKG c414b-ULS (cardioid din loc rob)>V3 (24/96)>sd722
Transfer: firewire>wavelab 6.10 [Crystal Resampler (downsample) iZotope Ozone 4 (dither)]>CDWav (splits)>FLACFrontend>foobar2000 (tagging)
taped and transferred by John Barren
A Team Dirty South Recording

Set 1
01. World Boss>
02. Mother Earth
03. Left Coast Groovies
04. Lay Your Burden Down
05. About to Rage
06. Patchwork Quilt
07. I Shall Return> Drift Away> I Shall Return
08. Kind of Bird> In Memory of Elizabeth Reed> Kind of Bird*
Set 2
01. John the Revelator
02. Frozen Fear> D'yer Mak'er> Frozen Fear>
03. Soulshine
04. Brighter Days>
05. Drums>
06. Railroad Boy >
07. I'll Be the One> Blue Sky>  I'll Be the One
08. Broke Down on the Brazos
09. crowd/tuning
Encore:
10. Blue Jean Blues
11. house music

* w/ Black Dog, Happy Together & The Wind Cries Mary teases


Shntool
    length     expanded size    cdr  WAVE problems  fmt   ratio  filename
     4:41.73       49740140 B   ---   --   ---xx   flac  0.5337  gm2012-10-19s1t01.flac
    11:15.38      119159420 B   ---   --   ---xx   flac  0.4919  gm2012-10-19s1t02.flac
     6:40.37       70647068 B   ---   --   ---xx   flac  0.5259  gm2012-10-19s1t03.flac
     6:05.22       64437788 B   ---   --   ---xx   flac  0.5053  gm2012-10-19s1t04.flac
    12:01.14      127217372 B   ---   --   ---xx   flac  0.4964  gm2012-10-19s1t05.flac
     5:25.41       57426476 B   ---   --   ---xx   flac  0.5178  gm2012-10-19s1t06.flac
     9:11.43       97297580 B   ---   --   ---xx   flac  0.5002  gm2012-10-19s1t07.flac
    16:30.17      174676028 B   ---   --   ---xx   flac  0.5122  gm2012-10-19s1t08.flac
     7:54.32       83688908 B   ---   --   ---xx   flac  0.4815  gm2012-10-19s2t01.flac
     9:25.63       99814220 B   ---   --   ---xx   flac  0.5441  gm2012-10-19s2t02.flac
     9:11.71       97363436 B   ---   --   ---xx   flac  0.5172  gm2012-10-19s2t03.flac
     8:18.28       87913100 B   ---   --   ---xx   flac  0.5442  gm2012-10-19s2t04.flac
     6:03.18       64075580 B   ---   --   ---xx   flac  0.5224  gm2012-10-19s2t05.flac
     6:59.47       74022188 B   ---   --   ---xx   flac  0.4920  gm2012-10-19s2t06.flac
    11:52.03      125603900 B   ---   --   ---xx   flac  0.4919  gm2012-10-19s2t07.flac
     7:00.58       74224460 B   ---   --   ---xx   flac  0.5006  gm2012-10-19s2t08.flac
     3:09.19       33384332 B   ---   --   ---xx   flac  0.4420  gm2012-10-19s2t09.flac
    11:05.07      117322508 B   ---   --   ---xx   flac  0.4253  gm2012-10-19s2t10.flac
     1:05.44       11569532 B   ---   --   ---xx   flac  0.3959  gm2012-10-19s2t11.flac
   153:58.00     1629584036 B                            0.5012  (19 files)



Show Checksums
flac.ffp
gm2012-10-19s1t01.flac:96e9e79430cdd4fa588b7bc3e55e0495
gm2012-10-19s1t02.flac:12619f2056c9e751355551386ac9853c
gm2012-10-19s1t03.flac:ac6addf56713e82bc00f8b78ed3ade92
gm2012-10-19s1t04.flac:910c1ebee125ac2235bf3741702802f5
gm2012-10-19s1t05.flac:54c5472c1a367f8095e2eb2e14c5618d
gm2012-10-19s1t06.flac:4ea78c992f41c3f26a5164fe78f682a6
gm2012-10-19s1t07.flac:7ce3e3156496d593216c87f21d92906c
gm2012-10-19s1t08.flac:e1edf509f8d8fe068052c33943e98e77
gm2012-10-19s2t01.flac:67a530383075f5e8725b09d7bf330ffe
gm2012-10-19s2t02.flac:8391279a203fb33f74cde7085c240a33
gm2012-10-19s2t03.flac:15e2f2b87730034928b02015ade0dc7f
gm2012-10-19s2t04.flac:2257e528b526a848cef03d551db9769a
gm2012-10-19s2t05.flac:54edc35a7ad9435b77163ff3f573705c
gm2012-10-19s2t06.flac:1be60f2447c9ea04d802539e04ea6ad3
gm2012-10-19s2t07.flac:5c2167f4886de87771bf2b1b0a617309
gm2012-10-19s2t08.flac:1e18e10239cc6875b4f30316fee949eb
gm2012-10-19s2t09.flac:a8b56408878a6500ec902864e5431ff0
gm2012-10-19s2t10.flac:68f36d3defd7dcad4be1c66f7d85d96f
gm2012-10-19s2t11.flac:a22ac84dc4ce8396211e49a860dfe539

Comments
Add Comment
Date User Comment