Browse Collections Artists Sources   Search Dates

Add Show    List Management    Help


Grateful Dead 12/18/73
Curtis Hixon Convention Hall, Tampa, FL
Comments Add Comment    Source Collectors    Add to Collection    Add to Want List    History
Source # 122508 Other Sources
Entered by Matt Vernon
Checksums ffp , flac-md5
Disc Counts 0 / 0
Media Size Compressed: 1.13 GB (1216348160 bytes)
Uncompressed: 1.72 GB (1845493760 bytes)
Date Circulated
Date Added
10/23/2012
10/23/2012
Source Summary flac16; Audience Cassette->Nakamichi Dragon->Sony PCMR300 Dat (16/44.1)->Sound Forge eq and normalization 
  Archive
Source Information - Download Text | Download Zip
Grateful Dead
73-12-18
Curtis-Hixon Hall

Tampa, FL





This was recorded by a friend of mine. He had Garcia's/the band's permission, and was able
to record very close to the stage.  It doesn't appear to circulate very much, although
know some dat copies were made in the mid-1990s. This is from a transfer he did in 1998,
burned to CD.

No Microphone information.
He used a Sony TC-126 deck with CRO2 tape, no dolby.



Lineage for this version :

Cassette-> Nakamichi Dragon-> Sony PCMR300 Dat (16/44.1)-> sound Forge equalization & normalization.


I extracted it from CD and haven't done anything else with it.  I thought I heard a few
digital artifacts suggesting noise reduction, but his notes don't indicate that.

He missed  taping "Me & Bobby McGee"



I have tracked thw songs sequentually rather than by disk. If you want to burn to CD, tracks 1-14
make CD1 tracks 15-19 make cd2, with room for track 25, and tracks 20-24 fit as cd3.
Otherwise, you will neeed 4 cds to keep them in order.


Adam, if you're out there, email me at [email protected]
____________________________________________________________________________________________________

--Set 1--
101-t01 - Tennessee Jed
102-t02 - Me & My Uncle

103-t03 - Don't Ease Me In

104-t04 - Looks Like Rain

105-t05 - They Love Each Other
missing - Me & Bobby McGee)

107-t06 - Weir's U-Boat Story

108-t07 - Brown-Eyed Women
109-t08 - Beat it On Down the Line->

110-t09 - Peggy-O

111-t10 - El Paso
112-t11 - Deal
113-t12 - Jack Straw

114-t13 - China Cat Sunflower->

115-t14 - I Know You Rider


--Set 2--
201-t15 - Flowers on Stage

202-t16 - Jet to the Promised Land->

203-t17 - Bertha->

204-t18 - Greatest Story Ever Told

205-t19 - Row Jimmy

206-t20 - Weather Report Suite
207-t21 - Dark Star->
208-t22 - Eyes of the world->

209-t23 - Wharf Rat

210-t24 - Sugar Magnoli
a

--Encore--
211-t25 - Uncle John's Band










____________________________________________________________________________________________________

Tagging notes:
Show information is embedded within the header of each flac file.
It will display on any player capable of directly playing flac files.
If converted to wav during processing, all tags will be stripped,
however audio data will remain unaffected.
If you must transcode to a lossy format, do so directly Flac > Lossy.
Use ffp to validate audio integrity.
Md5 values will change if tagging is altered.
B. Proctor 10-23-12
____________________________________________________________________________________________________

length     expanded size    cdr  WAVE problems  fmt   ratio  filename
     8:17.72       87840188 B   ---   --   ---xx   flac  0.6844  gd73-12-18.aud.AdamG.t01.flac
     2:56.17       31086428 B   ---   --   ---xx   flac  0.6884  gd73-12-18.aud.AdamG.t02.flac
     4:02.42       42787628 B   ---   --   ---xx   flac  0.6831  gd73-12-18.aud.AdamG.t03.flac
     7:34.13       80116220 B   ---   --   ---xx   flac  0.6886  gd73-12-18.aud.AdamG.t04.flac
     6:02.10       63880364 B   ---   --   ---xx   flac  0.6909  gd73-12-18.aud.AdamG.t05.flac
     1:28.07       15539708 B   ---   --   ---xx   flac  0.5771  gd73-12-18.aud.AdamG.t06.flac
     5:01.20       53143484 B   ---   --   ---xx   flac  0.6509  gd73-12-18.aud.AdamG.t07.flac
     3:25.67       36319628 B   ---   --   ---xx   flac  0.6624  gd73-12-18.aud.AdamG.t08.flac
     5:23.65       57130124 B   ---   --   ---xx   flac  0.6502  gd73-12-18.aud.AdamG.t09.flac
     4:24.63       46717820 B   ---   --   ---xx   flac  0.6630  gd73-12-18.aud.AdamG.t10.flac
     4:53.27       51748748 B   ---   --   ---xx   flac  0.6726  gd73-12-18.aud.AdamG.t11.flac
     5:11.68       55020380 B   ---   --   ---xx   flac  0.6623  gd73-12-18.aud.AdamG.t12.flac
     8:10.57       86570108 B   ---   --   ---xx   flac  0.6708  gd73-12-18.aud.AdamG.t13.flac
     6:00.04       63513452 B   ---   --   ---xx   flac  0.6672  gd73-12-18.aud.AdamG.t14.flac
     0:56.54       10005452 B   ---   --   ---xx   flac  0.4879  gd73-12-18.aud.AdamG.t15.flac
     3:16.33       34652060 B   ---   --   ---xx   flac  0.6738  gd73-12-18.aud.AdamG.t16.flac
     6:08.67       65072828 B   ---   --   ---xx   flac  0.6601  gd73-12-18.aud.AdamG.t17.flac
     5:05.46       53910236 B   ---   --   ---xx   flac  0.6605  gd73-12-18.aud.AdamG.t18.flac
     9:22.68       99296780 B   ---   --   ---xx   flac  0.6512  gd73-12-18.aud.AdamG.t19.flac
    16:28.00      174283244 B   ---   --   ---xx   flac  0.6576  gd73-12-18.aud.AdamG.t20.flac
    23:22.44      247416332 B   ---   --   ---xx   flac  0.6439  gd73-12-18.aud.AdamG.t21.flac
    14:04.71      149048636 B   ---   --   ---xx   flac  0.6598  gd73-12-18.aud.AdamG.t22.flac
     9:23.19       99357932 B   ---   --   ---xx   flac  0.6477  gd73-12-18.aud.AdamG.t23.flac
    10:26.17      110466428 B   ---   --   ---xx   flac  0.6796  gd73-12-18.aud.AdamG.t24.flac
     7:24.29       78389852 B   ---   --   ---xx   flac  0.6623  gd73-12-18.aud.AdamG.t25.flac
   178:53.05     1893314060 B                            0.6616  (25 files)




Show Checksums
ffp
gd73-12-18.aud.AdamG.t01.flac:1ca841a928c81ce158c82acf01459730
gd73-12-18.aud.AdamG.t02.flac:57e740e2d9ac3c4f4af25bd1734fcf0d
gd73-12-18.aud.AdamG.t03.flac:9c572c8d381804fd0ff248c22147b257
gd73-12-18.aud.AdamG.t04.flac:6d718a8b9ba935f1b8c3a755a5fca1d4
gd73-12-18.aud.AdamG.t05.flac:af9dcd750acc16fad277f474919b4a95
gd73-12-18.aud.AdamG.t06.flac:d9f09236a0a8f0aca95572d31d997006
gd73-12-18.aud.AdamG.t07.flac:080a90f55858e8ab33c9db71b355c0f8
gd73-12-18.aud.AdamG.t08.flac:c26976e423521dd95045c0717c8c8136
gd73-12-18.aud.AdamG.t09.flac:eca240db84d1e4afde74d871512e8215
gd73-12-18.aud.AdamG.t10.flac:3a6890ca9080073133b87aa2eb612626
gd73-12-18.aud.AdamG.t11.flac:d6bcdcd47c14c5977598e894ca1dabcf
gd73-12-18.aud.AdamG.t12.flac:cb85f69fe2d45299d5317abdc2857bc3
gd73-12-18.aud.AdamG.t13.flac:fdc766abd6227d5503a72a03bab6b498
gd73-12-18.aud.AdamG.t14.flac:f95964e85f1c875aac9650466eb1a968
gd73-12-18.aud.AdamG.t15.flac:73c4f903b446599f6e984b944384c8ef
gd73-12-18.aud.AdamG.t16.flac:665e7497d373be4406a84b27d06202a4
gd73-12-18.aud.AdamG.t17.flac:4e80dd7d68868ae38af9ad0d0267475d
gd73-12-18.aud.AdamG.t18.flac:3b10d652e0e7caf9c2d38cd76b72612e
gd73-12-18.aud.AdamG.t19.flac:678cf21877d3dae88c7a560943d3c918
gd73-12-18.aud.AdamG.t20.flac:613d30a794c4b701dd240fce1be93ddf
gd73-12-18.aud.AdamG.t21.flac:a5ac6ec83d68ba850fc547351d34b71a
gd73-12-18.aud.AdamG.t22.flac:c5418e85204c5d34656c60631d2a7649
gd73-12-18.aud.AdamG.t23.flac:e000eeeffd7b75b2b7508ba9d61cbd63
gd73-12-18.aud.AdamG.t24.flac:499b8a7f8cfd8a4dcb5164d2779357b8
gd73-12-18.aud.AdamG.t25.flac:15d650d06d947e34368f723dbf4adba1
flac-md5
925eadbf2ee0edc1f77419bb97369f82 *gd73-12-18.aud.AdamG.t01.flac
097340da0514ad5444a45300b0579cd4 *gd73-12-18.aud.AdamG.t02.flac
c435b755d94c97da67edabccfb5de15c *gd73-12-18.aud.AdamG.t03.flac
0d877a1f29b206309e24a4afe654ea6f *gd73-12-18.aud.AdamG.t04.flac
fdbde6fb5f3dd19c62e4dad8e470be40 *gd73-12-18.aud.AdamG.t05.flac
4f092b1f3c4f619176ecc4e9e7bfead0 *gd73-12-18.aud.AdamG.t06.flac
628a47a94548619fb80a0e9f9d092989 *gd73-12-18.aud.AdamG.t07.flac
0c602df1cc6e0d8c7f31b7f9ec9a8f9e *gd73-12-18.aud.AdamG.t08.flac
a665bb0738de7cd75508551e7708d4df *gd73-12-18.aud.AdamG.t09.flac
016a1c37429fd23b2b029d8c9ff133b4 *gd73-12-18.aud.AdamG.t10.flac
4768ac4f1365a64fc3cf688485e70108 *gd73-12-18.aud.AdamG.t11.flac
1fc5b82b0ce4977ec72b1fb12bbcea95 *gd73-12-18.aud.AdamG.t12.flac
da507c87773faa1f94aaf9bc0377c05c *gd73-12-18.aud.AdamG.t13.flac
9b792407ea944479f7b4f00ab3b924f2 *gd73-12-18.aud.AdamG.t14.flac
5e6f64094109a6ea55505ad553c5568d *gd73-12-18.aud.AdamG.t15.flac
d626966560e4cc1528db003ad8fef138 *gd73-12-18.aud.AdamG.t16.flac
b7ee0fb51bd47a45cab7b23d4d25b5b6 *gd73-12-18.aud.AdamG.t17.flac
5ca207cf04a342d91b9bbf401dc42339 *gd73-12-18.aud.AdamG.t18.flac
b3383663a176c7182373bd31567cbab9 *gd73-12-18.aud.AdamG.t19.flac
103a0b64ff32166c43269e2d5dd670aa *gd73-12-18.aud.AdamG.t20.flac
2ef134bc24bfb1798494df3a45f6774a *gd73-12-18.aud.AdamG.t21.flac
0e1b8e0d44e72c3c84fb227369bd0f96 *gd73-12-18.aud.AdamG.t22.flac
ef98e5ce7200942d3a473e1ef46e0a15 *gd73-12-18.aud.AdamG.t23.flac
0968a172bfac78e7a3b6e8368730f46e *gd73-12-18.aud.AdamG.t24.flac
603f663e8654a9400b30b6d63c9e6255 *gd73-12-18.aud.AdamG.t25.flac

Comments
Add Comment
Other Sources (comments)
SBD Reel master > cassette... (9) SBD Reel master > cassette... (16) further retracking and... (3) flac16; Recording... (1) flac16; Recording... (0) flac16; matrix of... (0) flac16; 3 source... (1)
Date User Comment