Browse Collections Artists Sources   Search Dates

Add Show    List Management    Help


Grateful Dead 10/31/80
Radio City Music Hall, New York, NY
Comments Add Comment    Source Collectors    Add to Collection    Add to Want List    History
Source # 122543 Other Sources
Entered by Matt Vernon
Checksums ffp , flac-md5
Disc Counts 0 / 0
Media Size Compressed: 1.34 GB (1436242005 bytes)
Uncompressed: 2 GB (2143644784 bytes)
Date Circulated
Date Added
10/26/2012
10/25/2012
Source Summary flac16; 3 Source Matrix: Soundboard (shnid=83158): Acoustic: PreFM>MSR>R>C>DAT>WAV>SHN; Electric: MSR>R>C>DAT>WAV>SHN; Audience (shnid=94270): Transfer Info: Master Cassette (Nakamichi DR-1/Dolby B) -> Sound Devices 744T (24bit/88.2k) -> Samplitude Professional v10.1 -> FLAC/16; Audience (shnid=120839): Nak 700 > sony D-5> AMC> DAT> CDR> EAC> TLH> Flac; Recorded by Keith Gatto & Pete Jaeger 
  Archive
Source Information - Download Text | Download Zip
Grateful Dead
October 31, 1980
Radio City Music Hall
New York, NY
---------------------------------------------------------------------------------------

3 Soure Matrix

Soundboard (shnid=83158)
---------------------------------------------------------------------------------------
gd1980-10-31.prefm.cousinit-edited.patched.83158.sbeok.flac16


Patch fix of shnid 20377

Main Source:

Acoustic: PreFM>MSR>R>C>DAT>WAV>SHN
Electric: MSR>R>C>DAT>WAV>SHN

C>SHN Conversion by Cousinit

Patch Source:

Master AUD (Sony ECM-280/D-5) Cass> PCM> ZA2> CD > EAC > SHN(shnid 1955)

except for part of drums (see below), which was patched with the AUD audio source from the circulating DVD (no source info given).

Edit: SHNs > WAV > Cool Edit 2000/Cool Edit Pro > shntool > FLAC

Audience (shnid=94270)
-----------------------------------------------------------------------------------------
gd1980-10-31.nak700.rolfe.miller.94270.sbeok.flac16


Recording Info:
Nakamichi 700 -> Master Cassette (Sony D5/Maxell UDXL-I & UDXL-II/Dolby B)

Transfer Info:
Master Cassette (Nakamichi DR-1/Dolby B) -> Sound Devices 744T (24bit/88.2k) ->
Samplitude Professional v10.1 -> FLAC/16
(3 Discs Audio / 2 Discs FLAC)

All Transfers and Mastering By Charlie Miller
[email protected]
August 30, 2008

Patch Source:
Sony ECM-280 -> Master Cassette -> PCM -> CD (shnid=1955) supplies:
Tuning (complete track)
Heaven Help The Fool (0:00 - 6:07)

Audience (shnid=120839)
-----------------------------------------------------------------------------------------
gd1980-10-31.120839.fob.nak700.gatto-jaeger.dusborne.flac16

Loge
Dead front center

Nak 700 > sony D-5> AMC> DAT> CDR> EAC> TLH> Flac
Recorded by Keith Gatto & Pete Jaeger

Extracted & flac encoded by Michael Turi

Patched and Edited in Sound Forge Pro. 10.0
Tracked in Audacity 2.0 by dusborne
06-20-2012

----------------------------------------------------------------------------------------


---Thank You Steve Rolfe,Jim Wise,Keith Gatto and Pete Jaeger for recording the show.
---Thank You Charlie Miller for your work on Jim and Steve's recordings.
---Thank You Michael Turi For extracting the files from your personal cd's.
---Thank You Cousinit and Bill Tetzeli for your work on the SBD.
---Thanks to germain for everything;seeding,encouragement,advice and tutelage.

Matrix by dusborne using Adobe Audition CS6 and Audacity 2.0

10-23-2012
----------------------------------------------------------------------------------------


Set 1:

s1t01 - Tuning
s1t02 - Heaven Help The Fool
s1t03 - Sage And Spirit
s1t04 - Little Sadie
s1t05 - Monkey And The Engineer
s1t06 - It Must Have Been The Roses
s1t07 - Cassidy
s1t08 - Bird Song ->
s1t09 - Ripple

Set 2:

s2t01 - Tuning
s2t02 - Jack Straw
s2t03 - Cold Rain And Snow
s2t04 - Me And My Uncle ->
s2t05 - Mexicali Blues
s2t06 - Ramble On Rose ->
s2t07 - Little Red Rooster
s2t08 - Brown Eyed Women ->
s2t09 - Looks Like Rain ->
s2t10 - Deal

Set 3:

s3t01 - Tuning
s3t02 - Don't Ease Me In ->
s3t03 - Lost Sailor ->
s3t04 - Saint Of Circumstance ->
s3t05 - Franklin's Tower ->
s3t06 - Drums ->
s3t07 - Space ->
s3t08 - Fire On The Mountain ->
s3t09 - Not Fade Away ->
s3t10 - Stella Blue ->
s3t11 - Goin' Down The Road Feeling Bad ->
s3t12 - Good Lovin'

Encore:
s3t13 - Uncle John's Band

---------------------------------------------------------------------------------------
Tagging notes:
Show information is embedded within the header of each flac file.
It will display on any player capable of directly playing flac
files. If converted to wav during processing, all tags will be
stripped, however audio data will remain unaffected. If you must
transcode to a lossy format, do so directly Flac > Lossy.
Use ffp to validate audio integrity.
Md5 values will change if tagging is altered.

dusborne 10-23-2012

--------------------------------------------------------------------------------------
length     expanded size    cdr  WAVE problems  fmt   ratio  filename
     2:52.14       30373772 B   ---   --   ---xx   flac  0.6741  gd80-10-31s1t01.flac
     8:18.53       87971900 B   ---   --   ---xx   flac  0.6849  gd80-10-31s1t02.flac
     2:52.06       30354956 B   ---   --   ---xx   flac  0.6678  gd80-10-31s1t03.flac
     3:20.28       35345900 B   ---   --   ---xx   flac  0.6785  gd80-10-31s1t04.flac
     3:19.52       35225948 B   ---   --   ---xx   flac  0.6885  gd80-10-31s1t05.flac
     7:23.05       78157004 B   ---   --   ---xx   flac  0.6772  gd80-10-31s1t06.flac
     7:33.14       79942172 B   ---   --   ---xx   flac  0.6944  gd80-10-31s1t07.flac
     9:28.61      100338716 B   ---   --   ---xx   flac  0.6912  gd80-10-31s1t08.flac
     4:38.67       49196828 B   ---   --   ---xx   flac  0.6811  gd80-10-31s1t09.flac
     1:58.06       20829356 B   ---   --   ---xx   flac  0.6405  gd80-10-31s2t01.flac
     6:06.63       64710620 B   ---   --   ---xx   flac  0.6667  gd80-10-31s2t02.flac
     7:25.00       78498044 B   ---   --   ---xx   flac  0.6561  gd80-10-31s2t03.flac
     3:02.43       32205980 B   ---   --   ---xx   flac  0.6742  gd80-10-31s2t04.flac
     5:45.35       60940364 B   ---   --   ---xx   flac  0.6493  gd80-10-31s2t05.flac
     7:52.71       83427836 B   ---   --   ---xx   flac  0.6608  gd80-10-31s2t06.flac
    10:52.03      115019900 B   ---   --   ---xx   flac  0.6555  gd80-10-31s2t07.flac
     5:12.00       55036844 B   ---   --   ---xx   flac  0.6930  gd80-10-31s2t08.flac
     6:49.63       72295820 B   ---   --   ---xx   flac  0.6631  gd80-10-31s2t09.flac
     6:31.39       69064172 B   ---   --   ---xx   flac  0.6851  gd80-10-31s2t10.flac
     0:30.74        5466092 B   ---   --   ---xx   flac  0.6119  gd80-10-31s3t01.flac
     3:37.00       38278844 B   ---   --   ---xx   flac  0.6653  gd80-10-31s3t02.flac
     6:06.51       64682396 B   ---   --   ---xx   flac  0.6492  gd80-10-31s3t03.flac
     6:31.24       69028892 B   ---   --   ---xx   flac  0.6672  gd80-10-31s3t04.flac
     9:05.74       96312092 B   ---   --   ---xx   flac  0.6801  gd80-10-31s3t05.flac
    12:18.01      130185596 B   ---   --   ---xx   flac  0.6487  gd80-10-31s3t06.flac
     4:44.00       50097644 B   ---   --   ---xx   flac  0.6209  gd80-10-31s3t07.flac
     9:29.74      100545692 B   ---   --   ---xx   flac  0.6914  gd80-10-31s3t08.flac
     6:20.73       67203740 B   ---   --   ---xx   flac  0.6892  gd80-10-31s3t09.flac
     9:39.28      102201500 B   ---   --   ---xx   flac  0.6510  gd80-10-31s3t10.flac
     6:13.21       65846636 B   ---   --   ---xx   flac  0.6896  gd80-10-31s3t11.flac
     7:49.50       82849244 B   ---   --   ---xx   flac  0.6745  gd80-10-31s3t12.flac
     8:41.45       92010284 B   ---   --   ---xx   flac  0.6633  gd80-10-31s3t13.flac
   202:32.13     2143644784 B                            0.6700  (32 files)

--------------------------------------------------------------------------------


Show Checksums
ffp
gd80-10-31s1t01.flac:53fd7f5d7319f3de441f034d39677a7b
gd80-10-31s1t02.flac:987dc2d2aeefd5c0f19300c93d8d403e
gd80-10-31s1t03.flac:eeb93621d4cc9cade1edc32dcaf10899
gd80-10-31s1t04.flac:5a66d3f95250ac7f6424412c494cf82a
gd80-10-31s1t05.flac:0df74aa4605dad32adbbb46c213fbc68
gd80-10-31s1t06.flac:59501831bcf3eac340863af4ed5f7fd5
gd80-10-31s1t07.flac:756ca55e4ce9797ab46b05d8264feb02
gd80-10-31s1t08.flac:ff10ce566414157136f2a4e0ed940778
gd80-10-31s1t09.flac:72ec93e1fdb7c7ad3ac6860960d09701
gd80-10-31s2t01.flac:138a308e8074e68463b8336ab505b176
gd80-10-31s2t02.flac:600c678f1e75212d34858e58c17919d4
gd80-10-31s2t03.flac:fb90fe18cf103152cbd562ec75f433b4
gd80-10-31s2t04.flac:cda30429590a69046fb38d19d773a633
gd80-10-31s2t05.flac:6a342b7012df479f533a6c03483e98e6
gd80-10-31s2t06.flac:e075c73f7ee8ab31f2b2cc8046b545d5
gd80-10-31s2t07.flac:a519f934d1a4973e470d22805c326d48
gd80-10-31s2t08.flac:0717d73f2d4021bbeedc0c6258ad2cb4
gd80-10-31s2t09.flac:c309198b4c34ab117ce933fe76dbeafe
gd80-10-31s2t10.flac:926fdabaa33a775eefd2001054523162
gd80-10-31s3t01.flac:3692fbf718946313ded1f6c4d9a8a6c4
gd80-10-31s3t02.flac:26739d5a65d87d54c22ddaea77356d9c
gd80-10-31s3t03.flac:172a98a31123e3cdb5ce25e713d6fb37
gd80-10-31s3t04.flac:e4b5b9fb85599653453a9caf545d2126
gd80-10-31s3t05.flac:6436be403ff1364a1c68b3fcb1982b8c
gd80-10-31s3t06.flac:182f0a0f40c13fe905b224a99fd917c1
gd80-10-31s3t07.flac:95eac4f5f40d07ef165ef479c85deacc
gd80-10-31s3t08.flac:dca1ab0fbd4d522fecf31bb92b7a4c74
gd80-10-31s3t09.flac:068bdc34069bd8b1539755dce3b01953
gd80-10-31s3t10.flac:59601612c6255847f513ff28830251ea
gd80-10-31s3t11.flac:3cbf1f34170576a5c2fc4045a3740038
gd80-10-31s3t12.flac:9310cbc6875dae85b6f017bc07035628
gd80-10-31s3t13.flac:3a36e3acc347aab7544caf35ee4ec8a7
flac-md5
4b3773c39d8fdcdfce4adb6f22b3af31 *gd80-10-31s1t01.flac
8f238cf35d2b1744ecf228f53072d1eb *gd80-10-31s1t02.flac
57d6c4724ac755a3c85ad357189fc8ad *gd80-10-31s1t03.flac
a2415fbd1a14f0a258021cba63df3513 *gd80-10-31s1t04.flac
ffe6895d269be1718a419c42de1ae2db *gd80-10-31s1t05.flac
e7ec49d66229f8df1d52600fbc11adc2 *gd80-10-31s1t06.flac
bac0aa53f594744b0135203bf51d9232 *gd80-10-31s1t07.flac
27bb2a358e263fd270ca9aca53968ade *gd80-10-31s1t08.flac
c6523d4c21aaffd9edcb0e93e288e8f2 *gd80-10-31s1t09.flac
71206e0b498a59a31bf3d5c297a57caf *gd80-10-31s2t01.flac
e9f11f1ade0bc6b9e3a99cd6f3043b44 *gd80-10-31s2t02.flac
716c8ac1b0883642707a9addb6c05627 *gd80-10-31s2t03.flac
cfb2fa101810e73b33445fb832d8e65e *gd80-10-31s2t04.flac
49c5ba6b768e368a1cff8d9ff1f8d489 *gd80-10-31s2t05.flac
19ef70db1fc8b372289ead3305bb7d15 *gd80-10-31s2t06.flac
59a42f9f43573148eebf19bb44ea1c08 *gd80-10-31s2t07.flac
c7a7fdc4ee7b9b1c5870f5a5ef8d553f *gd80-10-31s2t08.flac
2176beca8aa397ef3e0f7a81d1260e97 *gd80-10-31s2t09.flac
272916bf890e66ec9b4303927980cfb9 *gd80-10-31s2t10.flac
704619edd5ee0cbfc812d2865139bd69 *gd80-10-31s3t01.flac
143d56e383e857a80d93caaa6217c568 *gd80-10-31s3t02.flac
56c024ee088831d3b1bf4477e863ec69 *gd80-10-31s3t03.flac
50e7444caa20053bd6d09229949da61c *gd80-10-31s3t04.flac
58fda6706957ba88612366f859e2e531 *gd80-10-31s3t05.flac
379e085f5d4319f653e053cda436dcff *gd80-10-31s3t06.flac
ef3f74bd21c9ea6d22430ca7b6c5e2f9 *gd80-10-31s3t07.flac
f715e629119a881e9c588b124694be9b *gd80-10-31s3t08.flac
219cd7b6ccb805199106051a115dd5b4 *gd80-10-31s3t09.flac
82467f506edd4452d2690417e9e7436f *gd80-10-31s3t10.flac
d4b91869e5df17f2fe262f77c1d4b35c *gd80-10-31s3t11.flac
5d9b36df26746445452a97efe99de189 *gd80-10-31s3t12.flac
1cb9dad1c0be79a82ae15617f154c726 *gd80-10-31s3t13.flac

Comments
Add Comment
Other Sources (comments)
Recording by Jim Wise:... (2) Source: Acoustic:... (4) flac16; Acoustic:... (1) flac16; Recording... (0) flac16; Recording... (0) flac16; Loge Dead... (0) flac24; Partial... (0) flac16/48kHz;... (0) flac24; Cassette... (0) flac24; Updated... (3) flac16; Updated... (3) flac16; Source:... (0) flac24; Source:... (0) flac16; Source:... (0) flac16; Source Info:... (0)
Date User Comment