Browse Collections Artists Sources   Search Dates

Add Show    List Management    Help


Gov't Mule 10/30/12
The Pageant, St Louis, MO
Comments Add Comment    Source Collectors    Add to Collection    Add to Want List    History
Source # 122764 Other Sources
Entered by
Checksums ffp , md5
Disc Counts 0 / 0
Media Size
Uncompressed: 1.53 GB (1639794244 bytes)
Date Circulated
Date Added
11/06/2012
11/07/2012
Source Summary Source: mk5 (card, DINa) >kc5>cmc6xt>Nagra V @ 16/44
Location: FOB,DFC,10' up @ first drink rail
Conversion:Nagra HD > CDWAV > Flac16
Recorded & Converted by J Callery 
Source Information - Download Text | Download Zip
Gov't Mule
The Pageant
St. Louis, MO
Oct. 30, 2012


Source:  mk5 (card, DINa) >kc5>cmc6xt>Nagra V @ 16/44
Location: FOB,DFC,10' up @ first drink rail
Conversion:Nagra HD > CDWAV > Flac16
Recorded & Converted by J Callery

  Set I  Disc 1:

1) Bad Little Doggie >
2) Brand New Angel
3) Lola Leave Your Light On >
4) Mother Earth >
5) Lay Your Burden Down >
6) Smokestack Lightning >
7) Lay Your Burden Down
8) Unring The Bell
9) Endless Parade
10) I Think You Know What I Mean >
11) When The Levee Breaks >
12) I Think You Know What I Mean


Set II Disc 2:

1) Forevermore
2) Beautifully Broken >
3) Rocking Horse >
4) Brighter Days >
5) Drums >
6) Which Way Do We Run >
7) I'm A Ram >
8) Soulshine


Encores:
9) Crowd / Warren
10) Hammer & Nails*
11) After Midnight*

* - with Roosevelt Collier of the Lee Boys on Steel Guitar

Notes:  BIG Thanks to S.Brothers for the clamp space and the hospitality.


length     expanded size    cdr  WAVE problems  fmt   ratio  filename
     4:18.72       45680588 B   ---   --   ---xx  gm12-10-30d1t01.flac
     7:23.66       78300476 B   ---   --   ---xx  gm12-10-30d1t02.flac
     6:31.41       69068876 B   ---   --   ---xx  gm12-10-30d1t03.flac
    12:14.20      129524684 B   ---   --   ---xx  gm12-10-30d1t04.flac
     9:24.33       99567260 B   ---   --   ---xx  gm12-10-30d1t05.flac
     4:18.03       45518300 B   ---   --   ---xx  gm12-10-30d1t06.flac
     1:27.40       15440924 B   ---   --   ---xx  gm12-10-30d1t07.flac
     9:19.65       98760524 B   ---   --   ---xx  gm12-10-30d1t08.flac
     9:09.59       96982412 B   ---   --   ---xx  gm12-10-30d1t09.flac
     6:22.47       67495388 B   ---   --   ---xx  gm12-10-30d1t10.flac
     2:00.70       21332684 B   ---   --   ---xx  gm12-10-30d1t11.flac
     2:50.73       30159740 B   ---   --   ---xx  gm12-10-30d1t12.flac
     4:35.06       48524156 B   ---   --   ---xx  gm12-10-30d2t01.flac
     7:18.05       77275004 B   ---   --   ---xx  gm12-10-30d2t02.flac
    10:55.71      115709036 B   ---   --   ---xx  gm12-10-30d2t03.flac
     7:56.18       84008780 B   ---   --   ---xx  gm12-10-30d2t04.flac
     7:32.54       79859852 B   ---   --   ---xx  gm12-10-30d2t05.flac
     6:25.64       68064572 B   ---   --   ---xx  gm12-10-30d2t06.flac
     9:18.60       98572364 B   ---   --   ---xx  gm12-10-30d2t07.flac
     8:46.14       92819372 B   ---   --   ---xx  gm12-10-30d2t08.flac
     1:00.35       10666364 B   ---   --   ---xx  gm12-10-30d2t09.flac
     9:15.02       97906748 B   ---   --   ---xx  gm12-10-30d2t10.flac
     6:28.48       68556140 B   ---   --   ---xx  gm12-10-30d2t11.flac
   154:55.66     1639794244 B                            0.5372  (23 files)

Show Checksums
ffp
gm12-10-30d1t01.flac:cc35f64ef16f5ba53bcfe6feb472ea97
gm12-10-30d1t02.flac:fc0f297915b224c1a481f9de560ba68a
gm12-10-30d1t03.flac:017a7f9100d4ba2230ef347fb80c152e
gm12-10-30d1t04.flac:063ca92fcb2ebe5d219b3c20ddb3ea5c
gm12-10-30d1t05.flac:174ac0dfc1fd4011448eac0c9dfa7a35
gm12-10-30d1t06.flac:960c747b4a03751918169536d8f1df3e
gm12-10-30d1t07.flac:395538b5aadc03e5f4ddb59c6b758daa
gm12-10-30d1t08.flac:91f67de91aefa9b5df7812d5c5cd4851
gm12-10-30d1t09.flac:dfc1b903c18912ccbff4ead36cd1834a
gm12-10-30d1t10.flac:88c7bcf899776c9c3de4d43ed6885c7c
gm12-10-30d1t11.flac:cdaebdf610326a1912eda461c9898970
gm12-10-30d1t12.flac:7ab7f4d8727a590ff67d17f51a27324f
gm12-10-30d2t01.flac:94a480c33f9408c9d6407601ee0e4d16
gm12-10-30d2t02.flac:3229777e432068b0b2a3dcf7e6c70ed0
gm12-10-30d2t03.flac:8c3075b70a86a69474d1324177b0cc60
gm12-10-30d2t04.flac:f68f00ffb739d02d741a342a0bcf26e4
gm12-10-30d2t05.flac:0badf0a6bc83186b0f2745e38cf80075
gm12-10-30d2t06.flac:073a46c6042ad089d06bb10a7907ce90
gm12-10-30d2t07.flac:79194d0fb5ba8ee49a901ec22b062231
gm12-10-30d2t08.flac:d1717ddc464dea0f77a94015ac6181ba
gm12-10-30d2t09.flac:27ea17c2d81642e17c01630caa85dcce
gm12-10-30d2t10.flac:f3249b010237e26276c4f9feabc33303
gm12-10-30d2t11.flac:980af5999f1b80301ec7cbb7a016f032
md5
a3e2d7bc2fb81c772d0f85d7fc3e0aa6 *gm12-10-30d1t01.flac
b75bb0c4996f8beb3bd91634c5cfe0c0 *gm12-10-30d1t02.flac
2afa6a3c76e2c687fdfbebc369cc4551 *gm12-10-30d1t03.flac
f424753a3bc9cd6adb6a65e4cefc8b2f *gm12-10-30d1t04.flac
1edcf05bb7234a9187344ae752222fdd *gm12-10-30d1t05.flac
ad50c2f6a8c5cf43e8784d6a15306f6a *gm12-10-30d1t06.flac
7c03e63d5f127c27b73e6bf0c9da12ef *gm12-10-30d1t07.flac
d7856dddc148d5840a658084556d57ed *gm12-10-30d1t08.flac
0320a8eab39b22837325f06bded3d275 *gm12-10-30d1t09.flac
54c0e92cf31dc1e5492ae97c2a2c456b *gm12-10-30d1t10.flac
bc7cf2f951e6480637472333a4032742 *gm12-10-30d1t11.flac
5eb59aa47d1a20dd0695cd5a6eaedc61 *gm12-10-30d1t12.flac
c7e5f7425be7aaa5e789ee0c8c976684 *gm12-10-30d2t01.flac
7ee34d98341830db9fa18c7086e7887a *gm12-10-30d2t02.flac
b10384ebccdca4ac1c4658cad5bd5afc *gm12-10-30d2t03.flac
c82a034a05856d92069487edcc9e9ea3 *gm12-10-30d2t04.flac
debeeefbaffd2034999f82be07054430 *gm12-10-30d2t05.flac
5b3fcbbf677d561fcf4d9a3ee3acdad7 *gm12-10-30d2t06.flac
ca738a197343c476b7281612214daf51 *gm12-10-30d2t07.flac
fd75c35010d39ad0074f5ca1cb65eb6d *gm12-10-30d2t08.flac
3c9294023314cc816b14c41d6ae032f2 *gm12-10-30d2t09.flac
4fff4b56719c7858383bd2a806baf061 *gm12-10-30d2t10.flac
6cf466155da2c677613739cb99af442c *gm12-10-30d2t11.flac

Comments
Add Comment
Other Sources (comments)
flac16; AKG480's... (0) flac16; Oktava... (0) flac16; Microtech... (0) flac16; DPA 4017... (0) flac16; Microtech... (0)
Date User Comment