Browse Collections Artists Sources   Search Dates

Add Show    List Management    Help


Grateful Dead 05/05/79
Baltimore Civic Center, Baltimore, MD
Comments Add Comment    Source Collectors    Add to Collection    Add to Want List    History
Source # 123001 Other Sources
Entered by Matt Vernon
Checksums flac-md5 , ffp
Disc Counts 0 / 0
Media Size Compressed: 1.11 GB (1193048691 bytes)
Uncompressed: 1.71 GB (1838570952 bytes)
Date Circulated
Date Added
12/01/2012
12/01/2012
Source Summary flac16; Matrix with Soundboard (shnid:78748): Original Miller FLACs>WAV>Cool Edit 2k (using Pitch->Stretch functions correcting speed by 3%. Used Glassberg audience as baseline)>FLAC and Audience (shnid:89056): Recording Info: Sony ECM-250 -> Cassette Master (Sony TC-158/Maxell UDXL-II90); Transfer Info: Cassette Master (Nakamichi DR-1) -> Sound Devices 744T (24bit/96k) -> Samplitude Professional v9.12 -> FLAC/16 
  Archive
Source Information - Download Text | Download Zip
Grateful Dead
May 5, 1979
Civic Center
Baltimore, MD

2 source matrix

Soundboard (shnid:78748)
-------------------------------------------------------------------------------
gd79-05-05.sbd.fishmanj-repitch.78748.sbeok.flac16

Repitching Info:
original Miller FLACs>WAV>Cool Edit 2k (using Pitch->Stretch functions
correcting speed by 3%. Used Glassberg audience as baseline)>FLAC
Repitching done by fishmanj using Cool Edit 2000 and Adobe Audition
---------------------------------------------------------------------------------------
Recording Info:
SBD -> Cassette Master -> Dat (44.1k)

Transfer Info:
Dat (Sony R500) -> SEK'D Prodif Plus -> Samplitude Professional v8.01 -> FLAC
(3 Discs Audio / 2 Discs FLAC)


Patch Info:
Barry Glassberg's (FOB) Nakamichi 700 -> Cassette Master -> Dat -> CD
Jack Straw (patched from 0:00 - 0:22)
It's All Over Now (patched from 6:30 - 8:51)
Tennessee Jed (patched from 0:00 - 6:30)
Scarlet Begonias (patched from 0:00 - 3:26)
Samson And Delilah (patched from 6:15 - 6:49)
Wharf Rat (patched from 0:14 - 0:37)

Notes:
-- Seamless transition between Discs 2 and 3
-- There are some azimuth problems from the Cassette transfer
-- Thanks to David Gans for the SBD

All Transfers and Mastering By Charlie Miller
[email protected]
May 2, 2006

Audience (shnid:89056)
-----------------------------------------------------------------------------------------
gd1979-05-05.sonyecm.walker-scotton-miller.89056.flac16

Recording Info:
Sony ECM-250 -> Cassette Master (Sony TC-158/Maxell UDXL-II90)

Transfer Info:
Cassette Master (Nakamichi DR-1) -> Sound Devices 744T (24bit/96k) ->
Samplitude Professional v9.12 -> FLAC/16
(3 Discs Audio / 2 Discs FLAC)

All Transfers and Mastering By Charlie Miller
[email protected]
December 13, 2007

Patch Info:
Nakamichi 700 -> Cassette Master -> Dat -> CD (shnid=18871) supplies:
Tennessee Jed (6:39 - 6:48)
Drums (7:39 - 7:58)

Notes:
-- Set 2 is seamless
-- Recorded By Joani Walker
-- Sounds like a FOB recording
-- Thanks to Joani Walker and Paul Scotton for the tapes
-- Patch source recorded by Robert Wagner and Barry Glassberg
-- Patch source pitch adjusted to match Joani's tape
------------------------------------------------------------------------------------------

---Thank you David Gans for providing the SBD.
---Thank you Barry Glassberg,Robert Wagner and Joani Walker for recording the show.
---Thank you Charlie Miller for all your work on the SBD and Aud recordings.
---Thank you fishmanj pitch corrections on the SBD.
---Thank you Paul Scotton for loaning Charlie your tapes.
---Thanks to germain for everything;seeding,encouragement,advice and tutelage.

Matrix by dusborne using Adobe Audition CS6 and Audacity 2.0

11-28-2012

------------------------------------------------------------------------------------------

Set 1

s1t01 - Jack Straw
s1t02 - Sugaree
s1t03 - El Paso
s1t04 - Friend Of The Devil
s1t05 - It's All Over Now
s1t06 - Tennessee Jed
s1t07 - Dancin' In The Street

Set 2

s2t01 - Tuning
s2t02 - Scarlet Begonias ->
s2t03 - Fire On The Mountain
s2t04 - Samson And Delilah
s2t05 - He's Gone ->
s2t06 - Drums ->
s2t07 - Space ->
s2t08 - The Other One ->
s2t09 - Wharf Rat ->
s2t10 - Sugar Magnolia

Encore
s2t11 - One More Saturday Night
-------------------------------------------------------------------------------------

Notes
Mix Ratio:
SBD -1 db
Aud -7 db
** some minor mix adjustments here and there when needed **

---I found the SBD still ran fast. I pitch corrected between -0.17 and -0.18 cents.
---The AUD ran slow, about 2% when compared to the pitch corrected SBD.
-- As Charlie stated in his SBD notes, there are some moments of sonic weirdness due
to azimuth problems from the Cassette transfer, I just matrixed right over them!

Tagging notes:
Show information is embedded within the header of each flac file.
It will display on any player capable of directly playing flac
files. If converted to wav during processing, all tags will be
stripped, however audio data will remain unaffected. If you must
transcode to a lossy format, do so directly Flac > Lossy.
Use ffp to validate audio integrity.
Md5 values will change if tagging is altered.

dusborne 11-28-2012
-----------------------------------------------------------------------------------

length     expanded size    cdr  WAVE problems  fmt   ratio  filename
     6:45.48       71554940 B   ---   --   ---xx   flac  0.6501  gd79-05-05s1t01.flac
    15:51.32      167831708 B   ---   --   ---xx   flac  0.6429  gd79-05-05s1t02.flac
     6:14.48       66086540 B   ---   --   ---xx   flac  0.6256  gd79-05-05s1t03.flac
    10:33.41      111757676 B   ---   --   ---xx   flac  0.6321  gd79-05-05s1t04.flac
     8:12.52       86911148 B   ---   --   ---xx   flac  0.6642  gd79-05-05s1t05.flac
    11:26.34      121090412 B   ---   --   ---xx   flac  0.6456  gd79-05-05s1t06.flac
    10:51.25      114895244 B   ---   --   ---xx   flac  0.6680  gd79-05-05s1t07.flac
     0:29.29        5183852 B   ---   --   ---xx   flac  0.5550  gd79-05-05s2t01.flac
    11:43.13      124039820 B   ---   --   ---xx   flac  0.6568  gd79-05-05s2t02.flac
    14:43.69      155923532 B   ---   --   ---xx   flac  0.6510  gd79-05-05s2t03.flac
     9:40.53      102436700 B   ---   --   ---xx   flac  0.6476  gd79-05-05s2t04.flac
    15:49.25      167462444 B   ---   --   ---xx   flac  0.6388  gd79-05-05s2t05.flac
     8:53.69       94183532 B   ---   --   ---xx   flac  0.6227  gd79-05-05s2t06.flac
     3:54.55       41407004 B   ---   --   ---xx   flac  0.6170  gd79-05-05s2t07.flac
    13:22.01      141475196 B   ---   --   ---xx   flac  0.6438  gd79-05-05s2t08.flac
     9:51.69      104414732 B   ---   --   ---xx   flac  0.6656  gd79-05-05s2t09.flac
    10:24.70      110238284 B   ---   --   ---xx   flac  0.6718  gd79-05-05s2t10.flac
     4:52.72       51678188 B   ---   --   ---xx   flac  0.6963  gd79-05-05s2t11.flac
   173:42.55     1838570952 B                            0.6489  (18 files)




Show Checksums
flac-md5
f2e880b8074eb1b82c855fc4677c905a *gd79-05-05s1t01.flac
6d9f3e44f9aad485ff17e9f22efd5b1c *gd79-05-05s1t02.flac
a79a42afbd8d2fe79c25d56291d16b5d *gd79-05-05s1t03.flac
7e3c5823cbf7a7ac39c5a73e82465787 *gd79-05-05s1t04.flac
0ec2fe1d97eada7e529c764bf0751153 *gd79-05-05s1t05.flac
b36e0a716ac448f654716b854e4c2348 *gd79-05-05s1t06.flac
4f2cb91fbf55f195d2bc7e82e9e748c3 *gd79-05-05s1t07.flac
ddbc93428ddcdaf3dbd6e354cf7b102c *gd79-05-05s2t01.flac
d9f82fd866a8656ae15900a26f477025 *gd79-05-05s2t02.flac
b3c5df3f0bf71c4fc0595a683259bca5 *gd79-05-05s2t03.flac
52756daca4e65a73d81de94c405a81b6 *gd79-05-05s2t04.flac
723a63c8c0a049de0f0aae96090dfaaa *gd79-05-05s2t05.flac
9f17241c874dfad133ca346a19473820 *gd79-05-05s2t06.flac
13f3fcf9a6734031f7082930d15f133d *gd79-05-05s2t07.flac
8bdbf3c13208b78a7642cd8480e87f96 *gd79-05-05s2t08.flac
da76b52edf699d0f9883897a64e7ed0f *gd79-05-05s2t09.flac
3c0152170748f1109231496d691c7969 *gd79-05-05s2t10.flac
0cde5471eed8c86de85d1e052bfc7db8 *gd79-05-05s2t11.flac
ffp
gd79-05-05s1t01.flac:4c311ecc1963c458400285dbe390b631
gd79-05-05s1t02.flac:9fc0818c894ef03e49e777231372f252
gd79-05-05s1t03.flac:b1d6758009c93760455c41057fb6c4fc
gd79-05-05s1t04.flac:6b5ebd315d98ee00a1f031b07f0ac858
gd79-05-05s1t05.flac:a9f0c111790d96c078f1c771e1882bd6
gd79-05-05s1t06.flac:50bab2d34f9129c4ee8a461fe6aa4ef3
gd79-05-05s1t07.flac:4e4741dc97f31cfdcbf6d3bc14710441
gd79-05-05s2t01.flac:51e1feae01b2d194d34404252a0f695d
gd79-05-05s2t02.flac:730acf3b278e3b109f584ef2ae368a4d
gd79-05-05s2t03.flac:608c696262c3e8dd6f1a87ed4c067240
gd79-05-05s2t04.flac:3b6391c503e44a9b863ba3bca67f1079
gd79-05-05s2t05.flac:79905475030cf2781af11c48d4885fd5
gd79-05-05s2t06.flac:63a271ef03e674ffd98c4062ea5d1203
gd79-05-05s2t07.flac:f37314dcb949c9d3233df9efd62d4fee
gd79-05-05s2t08.flac:86d90efb26f8bb143bc61a73f6cb782a
gd79-05-05s2t09.flac:103cfbfe7f8f6025f1c839e23f3a6e1b
gd79-05-05s2t10.flac:71570d23bd81c04227a9d86ed7735b12
gd79-05-05s2t11.flac:10d0cf8bd9a63a81c307fe393e5f0c21

Comments
Add Comment
Other Sources (comments)
presumed to... (3) Recording by Barry... (0) flac16; Recording... (1) flac16; Pitch and... (1) flac16; Recording by... (0)
Date User Comment