Browse Collections Artists Sources   Search Dates

Add Show    List Management    Help


Zero 02/19/95
La Luna, Portland, OR
Comments Add Comment    Source Collectors    Add to Collection    Add to Want List    History
Source # 123094 Other Sources
Entered by
Checksums zero1995-02-19.md5 , zero1995-02-19.ffp
Disc Counts 0 / 0
Media Size Compressed: 876.47 MB (919047197 bytes)
Date Circulated
Date Added
12/09/2012
12/11/2012
Source Summary SBD + (Stage) AKG C61 -> Mackie CR-1604 -> Dat (48k); Transfer Info: Dat (Tascam DA-20) -> Tascam SS-R05 -> Samplitude Professional v11.2.1 -> FLAC; All Transfers and Mastering By Charlie Miller 
Source Information - Download Text | Download Zip
Zero - February 19, 1995
La Luna - Portland, OR

Recording Info:
SBD + (Stage) AKG C61 -> Mackie CR-1604 -> Dat (48k)

Transfer Info:
Dat (Tascam DA-20) -> Tascam SS-R05 -> Samplitude Professional v11.2.1 -> FLAC
(3 Discs Audio / 1 DVD FLAC)

All Transfers and Mastering By Charlie Miller
[email protected]
December 9, 2012

Notes:
-- Set 2 is seamless

Set 1:
d1t01 - Tuning
d1t02 - Anorexia
d1t03 - Junko Partner
d1t04 - Tangled Hangers
d1t05 - Highway 61 Revisited
d1t06 - Rigor Mortis
d1t07 - Pits Of Thunder

Set 2:
d2t01 - High And Lonesome
d2t02 - The Shape I'm In
d2t03 - It's Up To You
d2t04 - Home On The Range
d2t05 - Tell Me All About It
d3t01 - Golden Road

Encore:
d3t02 - Can't Keep A Good Man Down
d3t03 - Gregg's Eggs


SHNTOOL OUTPUT:
    length     expanded size    cdr  WAVE problems  fmt   ratio  filename
     1:54.65       20262524 B   ---   --   ---xx   flac  0.3269  zero1995-02-19d1t01.flac
     8:49.37       93402668 B   ---   --   ---xx   flac  0.5181  zero1995-02-19d1t02.flac
     5:30.69       58374332 B   ---   --   ---xx   flac  0.4993  zero1995-02-19d1t03.flac
    14:12.61      150436316 B   ---   --   ---xx   flac  0.5330  zero1995-02-19d1t04.flac
    11:54.42      126048428 B   ---   --   ---xx   flac  0.5216  zero1995-02-19d1t05.flac
    10:39.53      112844300 B   ---   --   ---xx   flac  0.5195  zero1995-02-19d1t06.flac
    10:04.68      106705580 B   ---   --   ---xx   flac  0.5232  zero1995-02-19d1t07.flac
    16:30.06      174650156 B   ---   --   ---xx   flac  0.5528  zero1995-02-19d2t01.flac
     7:30.46       79488236 B   ---   --   ---xx   flac  0.5077  zero1995-02-19d2t02.flac
    16:36.62      175840268 B   ---   --   ---xx   flac  0.4816  zero1995-02-19d2t03.flac
    10:23.74      110071292 B   ---   --   ---xx   flac  0.5082  zero1995-02-19d2t04.flac
    11:54.04      125959052 B   ---   --   ---xx   flac  0.5094  zero1995-02-19d2t05.flac
    17:36.73      186450140 B   ---   --   ---xx   flac  0.5446  zero1995-02-19d3t01.flac
     6:48.39       72062972 B   ---   --   ---xx   flac  0.5177  zero1995-02-19d3t02.flac
    15:48.17      167267228 B   ---   --   ---xx   flac  0.5618  zero1995-02-19d3t03.flac
   166:16.41     1759863492 B                            0.5222  (15 files)


Show Checksums
zero1995-02-19.md5
e78d4f94c8ed81881421c4b3105c592c *zero1995-02-19d1t01.flac
74753c19ff7eb92cb9eaf720b14bb09f *zero1995-02-19d1t02.flac
a19d100474e0f4e2de167b46c51f934c *zero1995-02-19d1t03.flac
575cb775316ca04319e2d7a9ffa5bcb8 *zero1995-02-19d1t04.flac
b481ac344cd7df862c6df4b37648312f *zero1995-02-19d1t05.flac
311069227897a628de9ace0109ee2ab5 *zero1995-02-19d1t06.flac
3ca16eb6e2945f7d9a3889e4bfa23ef2 *zero1995-02-19d1t07.flac
8b55793a6f97aab6bf4784f8ed42c6a8 *zero1995-02-19d2t01.flac
51b03c757f55fd1e07bb64e2b71057b5 *zero1995-02-19d2t02.flac
f03066d638d4a9c031015821fda7385b *zero1995-02-19d2t03.flac
1373b5b1bfdf6e51d178f0720e7665e5 *zero1995-02-19d2t04.flac
df976720d185cfd64d42981049e7a36e *zero1995-02-19d2t05.flac
40a182b8a044500ede63e13b7735b233 *zero1995-02-19d3t01.flac
64f6823be16b1edb45b056c91c6356e7 *zero1995-02-19d3t02.flac
f955d88b4dc4409286ba8fe14e60e993 *zero1995-02-19d3t03.flac
zero1995-02-19.ffp
zero1995-02-19d1t01.flac:e1012cccf7d16ec8db39dcb36848ac2b
zero1995-02-19d1t02.flac:f1f904a68919edbb6ce9b073fcb64a35
zero1995-02-19d1t03.flac:32f76c217e6b5f749cb8bd50df80fe75
zero1995-02-19d1t04.flac:94166e66da05c0322319142d58346661
zero1995-02-19d1t05.flac:599a7c63933160bcbc6ff2642a0ee14a
zero1995-02-19d1t06.flac:23467ec2c98a15a5f9eeb00a214c4c08
zero1995-02-19d1t07.flac:b400147d1f5d3ef4e241354c54275146
zero1995-02-19d2t01.flac:84c127a53d59b23c155c4ea4ba0f7cda
zero1995-02-19d2t02.flac:b90182d82bb26c651373577e06dd3e62
zero1995-02-19d2t03.flac:260cfa771e29fa1f246061c3477c535d
zero1995-02-19d2t04.flac:ebbd928527fe641184a4085eab6dde3b
zero1995-02-19d2t05.flac:98053d3e56b49a9b64e8ca88c62b76a4
zero1995-02-19d3t01.flac:8f7ff515813bba3842e85407e12c42e2
zero1995-02-19d3t02.flac:c1d086e4bdc3a9ca7c94f69972c8d66a
zero1995-02-19d3t03.flac:391d4e97afb23bf3ba960165c425a0a0

Comments
Add Comment
Date User Comment